<?xml version="1.0" standalone="no"?>
<!DOCTYPE svg PUBLIC "-//W3C//DTD SVG 1.1//EN" "http://www.w3.org/Graphics/SVG/1.1/DTD/svg11.dtd" >
<svg xmlns="http://www.w3.org/2000/svg">
<metadata>Generated by IcoMoon</metadata>
<defs>
<font id="stm" horiz-adv-x="1024">
<font-face units-per-em="1024" ascent="960" descent="-64" />
<missing-glyph horiz-adv-x="1024" />
<glyph unicode="&#x20;" horiz-adv-x="512" d="" />
<glyph unicode="&#xe900;" glyph-name="compass" d="M983.019 249.18c-53.989-125.894-145.71-218.026-272.597-272.185-63.422-27.037-129.298-40.868-198.692-40.868-69.422 0-135.355 13.675-198.72 40.868-125.823 54.017-218.523 146.079-272.597 272.185-27.080 63.195-40.3 129.936-40.3 199.387 0 69.436 13.221 135.625 40.3 198.805 54.074 126.12 146.774 217.629 272.597 271.632 63.365 27.193 129.298 40.882 198.72 40.882 69.394 0 135.27-13.831 198.692-40.882 126.886-54.159 218.608-145.724 272.597-271.632 27.179-63.379 40.853-129.369 40.853-198.805 0-69.451-13.675-135.993-40.853-199.387zM925.924 622.747c-23.746 55.336-55.563 103.467-95.722 143.37-40.442 40.172-88.43 72.231-143.852 96.317-55.407 24.086-113.623 35.846-174.62 35.846-81.168 0-156.165-20.171-225.020-60.5-68.841-40.314-123.709-95.197-164.009-164.080s-60.457-143.923-60.457-225.133c0-81.21 20.044-156.888 60.457-226.268 40.187-68.954 95.168-123.766 164.009-164.094 68.855-40.314 143.852-60.471 225.020-60.471 60.996 0 119.212 11.76 174.62 35.846 55.422 24.072 103.694 55.847 143.852 95.75 40.442 40.187 71.976 88.601 95.722 143.937 23.831 55.549 35.832 114.247 35.832 175.3 0 61.039-12.001 118.631-35.832 174.18zM762.482 152.863c-5.050 0-8.965 0.553-11.192 2.241l-363.836 140.008c-7.958 3.064-13.575 8.908-16.795 16.795l-151.682 374.106c-4.525 11.192-2.227 24.654 6.156 33.051 10.639 10.653 20.98 12.682 33.023 8.398l388.461-137.766c8.951-2.241 15.547-10.837 18.469-19.604l125.936-377.468c4.213-12.625 2.057-22.767-7.83-31.931-5.234-4.837-12.327-7.83-20.71-7.83zM611.353 537.055l-53.18-53.209c-1.121 2.241-2.794 4.483-4.468 6.156-22.952 22.966-60.457 22.966-83.409 0-22.952-22.952-22.952-61.039 0-84.005 2.241-2.227 3.915-3.915 5.603-4.483l-52.627-53.762 288.839-111.453-100.757 300.754z" />
<glyph unicode="&#xe901;" glyph-name="airplane" horiz-adv-x="1875" d="M1875.968 786.733c0-324.234-1563.567-682.017-1682.026-682.017-66.381 0-141.67 15.279-141.67 76.459 0 20.415 23.601 49.997 65.016 85.561h-0.065l-109.747 194.918c-14.824 26.396-3.056 59.815 25.031 71.062l18.855 7.542c34.198 13.653 72.688 11.638 105.261-5.591l199.209-105.391c77.629 45.966 165.595 94.143 258.373 141.54l-388.275 251.806c-30.753 19.895-30.427 64.951 0.585 84.391l31.793 19.96c52.858 33.223 117.094 43.041 177.493 27.112l645.933-170.277c201.419 79.905 383.529 134.388 491.325 134.388 28.737 0 57.604-0.715 85.431-2.731l-195.113-88.031-4.681-65.536 301.154 138.354c72.168-17.229 116.118-49.347 116.118-113.518zM1090.121 227.141l240.949-273.587c14.694-16.709 38.554-21.715 58.709-12.353l32.313 15.019c58.839 27.307 93.493 89.267 85.951 153.698l-30.167 257.788c-1.885 15.994-18.074 26.071-33.223 20.74l-344.064-121.125c-16.774-5.916-22.235-26.917-10.468-40.18z" />
<glyph unicode="&#xe902;" glyph-name="truck" horiz-adv-x="1520" d="M1520.595 393.661v53.706c0 26.167-10.499 51.226-29.069 69.638l-288.735 285.675c-18.359 18.095-43.102 28.33-68.952 28.33h-145.66v54.603c0 40.57-32.867 73.49-73.49 73.49h-841.358c-40.57 0-73.49-32.92-73.49-73.49v-491.953h1520.753zM1074.699 734.678c0 6.384 5.117 11.554 11.501 11.554h53.178c2.902 0 5.856-1.213 8.072-3.218l226.114-215.826c7.597-7.122 2.48-19.836-7.808-19.836h-279.556c-6.384 0-11.501 5.117-11.501 11.501v215.826zM1520.595 353.039v-162.7c0-40.57-32.92-73.49-73.49-73.49h-78.66c-14.191 97.494-98.232 172.46-199.683 172.46-101.187 0-185.227-74.967-199.419-172.46h-398.627c-14.244 97.494-98.285 172.46-199.472 172.46s-185.227-74.967-199.419-172.46h-98.496c-40.57 0-73.49 32.92-73.49 73.49v162.7h1520.753zM1168.869 240.193c-84.199 0-152.466-68.214-152.466-152.413s68.267-152.466 152.466-152.466c84.199 0 152.466 68.267 152.466 152.466s-68.267 152.413-152.466 152.413zM1168.869 11.547c-42.1 0-76.233 34.133-76.233 76.233s34.133 76.233 76.233 76.233c42.1 0 76.233-34.133 76.233-76.233s-34.133-76.233-76.233-76.233zM371.246 240.193c-84.199 0-152.466-68.214-152.466-152.413s68.267-152.466 152.466-152.466c84.199 0 152.466 68.267 152.466 152.466s-68.267 152.413-152.466 152.413zM371.246 11.547c-42.1 0-76.233 34.133-76.233 76.233s34.133 76.233 76.233 76.233c42.1 0 76.233-34.133 76.233-76.233s-34.133-76.233-76.233-76.233z" />
<glyph unicode="&#xe903;" glyph-name="lamp" horiz-adv-x="596" d="M562.72 659.265l-506.163-136.016c-3.916-0.997-7.868-1.515-11.71-1.515-19.874 0-38.123 13.336-43.516 33.505-6.428 24.085 7.795 48.91 31.917 55.411l506.089 136.053c24.012 6.28 48.799-7.868 55.227-32.028 6.502-24.048-7.831-48.91-31.843-55.411zM562.72 798.827l-506.163-136.016c-3.916-1.034-7.868-1.515-11.71-1.515-19.874 0-38.123 13.336-43.516 33.505-6.428 24.085 7.795 48.947 31.917 55.374l506.089 136.016c24.012 6.354 48.799-7.831 55.227-31.991 6.502-24.048-7.831-48.91-31.843-55.374zM313.554 871.379l-256.997-69.005c-3.953-0.997-7.905-1.515-11.747-1.515-19.837 0-38.123 13.373-43.479 33.542-6.539 24.048 7.795 48.91 31.917 55.374l256.887 68.969c24.085 6.317 48.799-7.795 55.263-31.954 6.465-24.085-7.795-48.91-31.843-55.411zM33.247 471.125l506.089 136.016c24.012 6.28 48.799-7.868 55.263-32.028 6.428-24.048-7.795-48.836-31.917-55.374l-94.31-25.304v-140.597c0-1.478-0.702-2.697-0.887-4.063h58.256c13.927 0 25.341-11.452 25.341-25.452v-15.995c0-14.038-6.797-34.614-15.183-45.696l-45.548-60.915c-8.386-11.156-15.257-31.769-15.257-45.696v-50.757c0-13.964-11.341-25.415-25.268-25.415h-25.637c-1.588-5.652 1.552-17.842 1.552-30.476 0-10.048 0-31.067 0-40.967 0-17.067-10.159-30.809-22.571-30.809h-39.083c0.813-3.214 1.552-6.686 1.552-10.306 0-16.956-10.122-30.735-22.608-30.735h-90.21c-12.412 0-22.534 13.779-22.534 30.735 0 3.731 0.665 7.093 1.515 10.306h-39.12c-12.449 0-22.497 13.742-22.497 30.809 0 9.826 0 30.993 0 40.967 0 12.597 3.103 24.861 1.515 30.476h-25.6c-13.89 0-25.304 11.452-25.304 25.415v50.757c0 13.964-6.871 34.54-15.22 45.696l-45.548 60.915c-8.349 11.082-15.183 31.658-15.183 45.696v15.995c0 14.001 11.415 25.452 25.341 25.452h57.369v53.047l-71-19.025c-3.916-1.034-7.868-1.552-11.71-1.552-19.874 0-38.123 13.262-43.516 33.468-6.428 24.122 7.795 48.947 31.917 55.411zM202.731 349.774h191.243c-0.222 1.441-0.85 2.66-0.85 4.063v120.316l-190.393-51.163v-73.217z" />
<glyph unicode="&#xe904;" glyph-name="cart" horiz-adv-x="1358" d="M1339.928 752.177c-14.97 17.993-37.254 28.477-60.709 28.477h-887.613l-8.631 44.666c-5.461 28.574-26.283 51.736-54.028 60.367l-226.84 70.315c-41.545 12.873-85.723-10.338-98.645-51.931-12.873-41.545 10.386-85.675 51.98-98.548l181.638-56.32 138.435-606.939c4.827-25.649 21.797-46.47 44.325-56.905-0.683-5.413-1.073-10.874-1.073-16.433 0-73.582 59.928-133.413 133.559-133.413s133.51 59.831 133.51 133.413c0 3.023-0.146 6.095-0.341 9.118h210.798c-0.195-3.023-0.341-6.095-0.341-9.118 0-73.582 59.88-133.413 133.51-133.413s133.559 59.831 133.559 133.413c0 3.267-0.146 6.534-0.39 9.752 33.743 4.096 61.538 29.501 67.974 63.586l126.098 545.061c4.34 23.016-1.804 46.811-16.774 64.853zM552.326 3.925c-35.889 0-65.048 29.16-65.048 65 0 35.791 29.16 64.951 65.048 64.951 35.84 0 65-29.16 65-64.951 0-35.84-29.16-65-65-65zM1029.461 3.925c-35.84 0-65 29.16-65 65 0 35.791 29.16 64.951 65 64.951 35.889 0 65.048-29.16 65.048-64.951 0-35.84-29.16-65-65.048-65zM1075.298 274.213h-540.331c-26.136 0-47.299 21.163-47.299 47.25 0 26.136 21.163 47.299 47.299 47.299h540.331c26.136 0 47.299-21.163 47.299-47.299 0-26.088-21.163-47.25-47.299-47.25zM1075.298 526.263h-540.331c-26.136 0-47.299 21.163-47.299 47.299 0 26.088 21.163 47.25 47.299 47.25h540.331c26.136 0 47.299-21.163 47.299-47.25 0-26.136-21.163-47.299-47.299-47.299z" />
<glyph unicode="&#xe905;" glyph-name="home" horiz-adv-x="1096" d="M0.643 543.325v54.116h34.648v38.379l512 324.224 513.544-325.339v-37.264h34.648v-54.116h-1094.84zM548.063 819.007c-46.226 0-83.704-37.692-83.704-84.218 0-46.483 37.478-84.176 83.704-84.176s83.704 37.692 83.704 84.176c0 46.526-37.478 84.218-83.704 84.218zM88.035 504.088h920.099v-438.588h79.287v-129.544h-1078.716v129.544h79.33v438.588zM764.227 65.501h135.204v337.774c0 37.478-30.317 67.967-67.623 67.967-37.264 0-67.581-30.488-67.581-67.967v-337.774zM480.44 65.501h135.247v337.774c0 37.478-30.317 67.967-67.623 67.967-37.264 0-67.623-30.488-67.623-67.967v-337.774zM193.565 65.501h135.247v337.774c0 37.478-30.36 67.967-67.623 67.967-37.307 0-67.623-30.488-67.623-67.967v-337.774z" />
<glyph unicode="&#xe906;" glyph-name="graph" horiz-adv-x="1021" d="M965.129-63.818h-852.153c-62.593 0-113.611 51.018-113.611 113.611v853.288c0 31.365 25.418 56.783 56.783 56.783s56.828-25.418 56.828-56.783v-853.288h852.153c31.319 0 56.783-25.464 56.783-56.828s-25.464-56.783-56.783-56.783zM950.105 640.363l-47.705 39.535-198.4-241.067c-9.532-11.711-23.376-18.973-38.4-20.471l-193.498-18.746c-15.569-1.452-29.867-9.305-39.399-21.696l-174.888-225.316c-9.623-12.391-27.461-14.661-39.852-4.993l-44.891 34.905c-12.391 9.623-14.661 27.461-4.993 39.852l204.845 264.034c9.532 12.301 23.875 20.153 39.308 21.742l195.45 18.837c14.979 1.498 28.823 8.851 38.4 20.471l168.806 204.845-51.79 42.939c-18.428 15.342-10.894 45.118 12.482 49.793l193.952 39.081c17.974 3.586 34.678-10.576 33.997-28.868l-6.945-193.952c-0.817-23.648-28.278-35.904-46.479-20.925z" />
<glyph unicode="&#xe907;" glyph-name="check" d="M302.095 545.28l-71.665-71.68 230.369-230.369 511.954 511.939-71.68 71.68-440.274-440.274-158.705 158.705zM921.554 448c0-225.249-184.305-409.554-409.554-409.554-225.265 0-409.554 184.305-409.554 409.554 0 225.265 184.289 409.554 409.554 409.554 40.96 0 76.785-5.105 112.625-15.345l81.92 81.905c-61.44 20.48-127.985 35.84-194.545 35.84-281.569 0-511.954-230.385-511.954-511.954s230.385-511.939 511.954-511.939c281.569 0 511.939 230.369 511.939 511.939h-102.385z" />
<glyph unicode="&#xe908;" glyph-name="email" horiz-adv-x="1365" d="M1280.112-64h-1194.667c-51.312 0-85.445 34.133-85.445 85.445v853.11c0 51.088 34.133 85.445 85.445 85.445h1194.667c51.312 0 85.445-34.133 85.445-85.445v-853.333c-0.223-51.088-34.356-85.222-85.445-85.222zM256.112 789.333l426.555-341.333 426.778 341.333h-853.333zM1194.667 703.888l-512-426.555-512 426.555v-597.222h1024v597.222z" />
<glyph unicode="&#xe909;" glyph-name="iphone" horiz-adv-x="768" d="M704-64h-640c-38.4 0-64 25.6-64 64v896c0 38.4 25.6 64 64 64h640c38.4 0 64-25.6 64-64v-896c0-38.4-25.6-64-64-64zM320 64h128v64h-128v-64zM640 832h-512v-640h512v640z" />
<glyph unicode="&#xe90a;" glyph-name="location-2" horiz-adv-x="843" d="M421.671 960c-234.951 0-421.671-186.72-421.671-421.671 0-331.412 301.233-560.299 391.493-602.466 6.063 0 18.052 0 24.115 0h12.126c6.063 0 18.052 0 24.115 6.063 90.26 36.104 391.493 264.992 391.493 596.403 0 234.951-186.72 421.671-421.671 421.671zM427.735 62.364c0 0-6.063 0 0 0-6.063 0-6.063 0-11.989 0-78.409 42.167-295.308 228.888-295.308 475.965 0 162.605 132.565 301.233 301.233 301.233s301.233-132.565 301.233-301.233c0-247.077-216.899-433.798-295.17-475.965zM421.671 658.767c-66.282 0-120.438-54.156-120.438-120.438s54.156-120.438 120.438-120.438c66.282 0 120.438 54.156 120.438 120.438s-54.156 120.438-120.438 120.438z" />
<glyph unicode="&#xe90b;" glyph-name="testimonials-new-2" horiz-adv-x="1297" d="M755.849-64.546h540.467v475.546h-321.263l3.959 55.637c5.666 79.053 33.792 135.578 83.422 193.877 40.755 47.991 106.086 94.276 198.861 140.629l-86.972 158.925c-147.729-67.584-254.157-144.179-316.826-228.147-67.379-90.522-101.649-204.8-101.649-365.636v-430.831zM-0.819-64.546h542.106v475.546h-323.038l4.096 55.706c5.734 78.985 33.792 135.441 83.422 193.741 40.96 48.128 106.291 94.345 198.997 140.698l-86.972 158.925c-148.002-67.721-254.43-144.384-316.757-228.079-67.516-90.59-101.717-218.112-101.717-378.88l-0.137-417.655z" />
<glyph unicode="&#xe90c;" glyph-name="diamond" horiz-adv-x="1007" d="M800.567 743.164h-594.088l-206.479-267.633 503.607-539.53 503.439 539.43zM642.266 459.902l-138.66-445.591-138.66 445.591h277.319zM372.837 493.224l130.77 203.222 130.602-203.222h-261.372zM533.655 709.775h232.33l-103.239-200.838zM344.467 508.936l-103.407 200.838h232.498zM316.097 493.174h-261.204l156.622 203.121zM331.205 459.852l135.806-436.812-407.753 436.812h271.948zM676.008 459.852h271.78l-407.753-436.812zM691.116 493.174l104.414 203.121 156.79-203.121h-261.204zM487.491 826.41h32.063v49.991h48.346v33.322h-48.346v49.991h-32.063v-49.991h-48.178v-33.322h48.178v-49.991zM808.96 776.435h32.063v49.975h48.178v33.339h-48.178v49.975h-32.063v-49.975h-48.346v-33.339h48.346v-49.975zM166.022 776.435h32.231v49.975h48.178v33.339h-48.178v49.975h-32.231v-49.975h-48.178v-33.339h48.178v-49.975z" />
<glyph unicode="&#xe90d;" glyph-name="idea" horiz-adv-x="956" d="M955.29 375.945c-0.956-3.891-2.082-7.714-3.209-11.776-1.911-6.554-7.27-12.22-14.541-15.633-7.27-3.243-15.974-4.028-24.269-2.15l-72.875 17.169c-15.531 3.721-24.917 16.077-21.231 28.604 0.205 0.683 0.375 1.638 0.785 2.253 3.379 12.493 18.398 20.855 34.372 19.046l75.298-8.465c8.397-0.956 15.94-4.608 20.89-10.069 4.847-5.53 6.69-12.356 4.779-18.978zM797.116 695.262c-12.015-8.431-28.501-6.11-37.649 5.257-0.649 0.717-1.092 1.365-1.741 2.014-9.25 11.264-8.294 27.853 2.219 37.99l49.971 47.514c5.564 5.257 13.175 8.055 20.787 7.646 7.817-0.444 14.95-4.028 19.934-9.899 2.935-3.55 5.871-7.1 8.704-10.684 4.881-6.076 7.031-13.79 5.871-21.402s-5.393-14.438-11.639-18.842l-56.457-39.595zM634.3 233.779v-83.081c0-24.269-8.772-33.621-22.46-42.974-3.379-2.287-5.495-6.144-5.769-10.411-0.273-4.13-0.717-9.694 4.471-10.957 21.231 0 21.163-23.893 21.163-23.893 0-9.694 0-53.521 0-53.521 0-11.981-9.387-21.641-21.163-21.641h-14.131c-11.332 0-19.558-9.66-19.558-9.66s-49.050-41.711-99.123-41.711c-49.391 0-99.157 41.711-99.157 41.711s-8.226 9.66-19.558 9.66h-14.131c-11.708 0-21.163 9.66-21.163 21.641 0 0 0 43.861 0 53.521 0 0-0.068 23.893 21.163 23.893 5.188 1.297 4.779 6.758 4.54 10.957-0.239 4.267-2.423 8.124-5.837 10.411-13.687 9.353-22.46 18.739-22.46 42.974v83.081c-78.404 49.835-123.767 134.144-123.767 239.65 0 153.532 116.736 279.177 263.134 288.666h34.441c146.5-9.489 263.168-135.134 263.168-288.666 0-105.506-45.397-189.85-123.802-239.65zM477.73 669.082c-106.871-0.375-193.638-90.317-193.638-200.909 0-55.125 16.623-129.809 95.881-171.588l15.77-8.397v-77.107c0-13.21 8.909-24.405 21.402-27.238l33.246-7.134c22.255-5.837 49.050-1.263 54.682 0l33.28 7.134c12.493 2.833 21.402 14.029 21.402 27.238v77.107l15.735 8.397c79.223 41.813 95.881 116.429 95.881 171.588 0 110.592-86.767 200.533-193.638 200.909zM480.154 823.194c-0.853 0-1.707 0-2.526-0.034-14.643-0.205-26.931 11.947-28.194 27.853l-5.939 75.196c-0.683 8.363 1.877 16.691 6.997 23.006 5.12 6.281 12.425 9.933 20.105 10.172 4.642 0.102 9.216 0.137 13.858 0.137 7.646-0.034 15.053-3.516 20.241-9.694 5.393-6.144 8.055-14.404 7.509-22.801l-4.437-75.264c-0.887-16.009-13.005-28.467-27.614-28.57zM188.962 693.623c-8.943-11.537-25.361-14.234-37.513-6.11l-57.446 38.195c-6.383 4.335-10.718 11.025-12.015 18.569-1.297 7.612 0.58 15.36 5.257 21.538 2.765 3.686 5.598 7.305 8.533 10.923 4.813 5.973 11.913 9.694 19.558 10.342 7.68 0.58 15.258-2.014 20.958-7.202l51.098-46.319c10.82-9.83 12.254-26.317 3.209-37.888-0.58-0.649-1.058-1.365-1.638-2.048zM135.475 395.878c0.239-0.717 0.444-1.502 0.683-2.014 3.789-12.322-5.222-24.781-20.548-28.672l-72.499-18.227c-8.124-2.219-16.896-1.399-24.371 1.775-7.441 3.106-12.8 8.533-14.916 15.053-1.263 3.823-2.492 7.68-3.584 11.571-1.843 6.451-0.137 13.346 4.574 18.773 4.779 5.53 12.22 9.216 20.617 10.274l75.196 9.694c15.94 1.946 31.164-5.905 34.85-18.227z" />
<glyph unicode="&#xe90e;" glyph-name="stats" horiz-adv-x="939" d="M665.984 862.464c0 63.787 45.824 97.536 102.357 97.536 56.619 0 102.443-33.749 102.443-97.536 0-63.701-45.824-133.12-102.443-133.12-56.533 0-102.357 69.461-102.357 133.12zM925.269 685.909c-8.491 8.448-19.925 13.184-32 13.184h-97.067l-16.981-22.357 31.147-174.251-42.24-39.296-42.155 39.296 31.061 174.251-16.896 22.357h-96.981c-24.875 0-45.056-19.925-45.056-44.459v-280.832c0-24.533 20.139-44.501 44.971-44.501 5.333 0 10.283 1.067 15.019 2.731v-336.853c0-32.725 26.88-59.179 60.032-59.179 20.907 0 39.253 10.581 50.005 26.581 10.752-16.085 29.099-26.581 50.005-26.581 33.237 0 60.032 26.496 60.032 59.179v339.797c3.797-1.024 7.851-1.92 12.075-1.92 25.515-0.939 45.141 19.499 45.397 44.075l2.603 277.077c0.171 11.904-4.523 23.296-12.971 31.701zM515.157 658.603h-216.149v-701.867h216.149v701.867zM216.149 430.549h-216.149v-473.771h216.149v473.771z" />
<glyph unicode="&#xe90f;" glyph-name="badge" d="M802.231 649.911c-10.423-14.738-10.789-35.767-1.353-51.054 14.373-20.297 29.477-40.046 43.593-60.453 7.534-10.679 3.438-26.99-8.887-32.037-23.223-8.375-46.994-15.36-70.4-23.369-16.603-5.632-29.111-21.504-30.976-38.802-0.402-25.454-0.219-50.871-0.585-76.325 0.11-13.458-13.605-24.32-26.697-20.59-23.333 6.656-46.153 14.921-69.303 22.053-18.030 5.998-39.57-0.914-50.834-16.201-14.519-19.493-28.453-39.424-43.154-58.77-8.009-10.569-25.234-10.715-33.243-0.11-14.775 19.383-28.745 39.314-43.301 58.843-11.557 15.579-33.609 22.272-51.931 15.799-22.162-7.058-44.215-14.555-66.487-21.321-13.495-4.827-28.562 5.998-28.562 20.224-0.293 23.369-0.183 46.811-0.146 70.217 0.439 19.529-12.69 38.4-31.159 44.763-22.967 7.79-46.19 14.958-69.12 22.821-12.617 4.059-18.139 20.517-10.679 31.488 13.458 20.261 28.453 39.534 42.569 59.319 11.118 15.36 11.081 37.815 0.183 53.248-14.19 19.858-28.782 39.424-42.789 59.465-7.314 10.971-2.011 27.063 10.423 31.451 22.857 8.302 46.153 15.323 69.339 22.821 16.421 5.632 28.709 21.321 30.939 38.473 0.878 26.039-0.329 52.114 0.658 78.117 0.658 13.056 14.482 22.491 26.917 18.834 23.296-6.912 46.263-14.885 69.522-22.162 18.834-5.998 40.96 2.121 52.005 18.432 12.178 17.115 24.686 34.011 36.974 51.054 3.767 5.486 8.375 10.862 14.958 12.837 9.289 3.291 19.383-1.902 24.759-9.582 13.641-18.322 27.026-36.901 40.448-55.442 11.337-15.653 32.951-23.003 51.419-17.189 23.113 7.461 46.153 15.323 69.413 22.309 12.654 3.657 26.185-6.217 26.77-19.31 0.475-23.918 0.585-47.872 0.402-71.826-0.402-18.981 12.398-37.266 30.062-43.959 23.589-7.717 47.397-14.958 70.729-23.369 12.361-4.389 17.445-20.517 10.24-31.378-13.641-20.151-28.562-39.497-42.715-59.319zM309.979 250.843c25.051-1.207 48.128 9.399 71.717 15.982 16.677-23.625 33.682-48.347 59.941-62.354-83.2-89.49-166.473-178.944-249.637-268.434-0.256 63.927 0.146 127.854-0.183 191.781-63.963 0.366-127.89-0.073-191.817 0.219 66.523 69.559 132.206 139.995 199.461 208.786 12.763-48.896 59.721-86.272 110.519-85.979zM655.909 253.769c28.818-6.583 59.941-2.121 85.504 12.763 34.231 19.566 55.479 57.307 58.258 96.183 75.191-77.787 149.504-156.453 224.329-234.679-63.963-0.293-127.89 0.11-191.854-0.183-0.256-63.927 0.073-127.89-0.146-191.817-87.223 93.477-174.555 186.843-261.669 280.393 17.408 13.714 29.623 32.329 42.057 50.322 14.775-3.365 28.745-9.728 43.52-12.983z" />
<glyph unicode="&#xe910;" glyph-name="security" horiz-adv-x="819" d="M416.085-62.703c-2.048-0.956-4.369-1.297-6.485-1.297-2.355 0-4.403 0.341-6.554 1.297-16.384 7.134-403.046 177.015-403.046 399.394v475.034c0 8.67 7.1 15.872 16.111 15.872 322.116 0 377.993 121.378 378.368 122.641 2.594 5.803 8.533 9.762 14.95 9.762 0.137 0 0.273 0 0.273 0 6.622-0.137 12.493-4.096 14.848-10.035 0.512-1.126 55.194-122.368 378.539-122.368 8.875 0 16.043-7.202 16.111-15.872v-475.034c0-222.379-386.628-392.26-403.115-399.394zM730.214 725.265c0 6.861-5.598 12.527-12.595 12.527-253.065 0-295.902 94.857-296.346 95.71-1.843 4.71-6.417 7.817-11.571 7.885 0 0-0.137 0-0.205 0-5.052 0-9.66-3.106-11.639-7.68-0.444-0.922-44.134-95.915-296.346-95.915-6.997 0-12.629-5.666-12.629-12.527v-356.966c0-173.978 302.865-307.132 315.597-312.627 1.673-0.785 3.311-1.092 5.086-1.092 1.638 0 3.482 0.307 5.052 1.092 12.868 5.495 315.631 138.65 315.631 312.627l-0.034 356.966zM393.318 228.147c-1.058-2.765-3.447-4.642-6.212-5.257-0.58-0.137-1.229-0.137-1.638-0.137-2.355 0-4.506 0.785-6.076 2.56l-213.538 214.46c-1.707 1.741 62.635 58.197 65.741 55.979l117.282-90.726c45.636 53.043 158.14 172.373 314.163 266.889 2.185 1.297 25.327-33.587 25.361-33.621 1.434-3.243 0.546-7.066-2.048-9.455-145.067-131.925-258.662-313.822-293.035-400.691z" />
<glyph unicode="&#xe911;" glyph-name="binoculars" horiz-adv-x="1396" d="M1094.609-63.953c-169.798 0-301.335 138.287-301.335 309.434 0 0 0 21.132 0 47.43s-21.551 64.465-45.335 73.356c-13.405 5.073-36.538 7.866-52.969 7.866s-34.909-2.746-48.268-7.866c-23.785-8.844-43.706-47.057-43.706-73.356v-47.43c0-171.148-131.398-309.434-301.242-309.434-170.17 0-301.801 138.287-301.801 309.434 0 41.844 8.518 81.78 23.692 118.272 1.303 3.351 2.7 6.516 4.189 9.635 2.42 5.167 29.37 44.172 60.044 86.993 0 0 114.828 171.334 196.236 286.115 20.247 20.666 70.796 69.353 174.173 58.554 64-6.703 140.148-46.825 157.184-108.079 2.513-14.988 4.655-25.972 5.865-25.972 6.377 0 17.548 23.738 35.747 42.031 10.612 10.752 26.112 17.408 42.496 17.408 16.431 0 32.721-6.656 43.427-17.361 18.246-18.199 25.786-42.077 32.256-42.077 2.607 0 5.632 16.57 8.704 37.004 22.714 54.924 92.905 90.764 152.855 97.047 106.077 11.078 156.765-40.541 175.988-60.276 81.687-114.967 195.537-284.346 195.537-284.346 30.72-42.915 57.716-81.78 60.090-86.993 1.489-3.119 2.979-6.284 4.422-9.495 15.034-36.678 23.366-76.614 23.319-118.458 0-171.148-131.677-309.434-301.568-309.434zM308.084 468.201c-122.461 0-221.649-99.933-221.649-222.767 0-122.927 99.188-222.953 221.649-222.953 122.135 0 221.556 100.073 221.51 222.953 0 122.833-99.375 222.767-221.51 222.767zM755.107 527.872c-14.941 15.081-35.607 24.436-58.368 24.436-22.993 0-43.66-9.356-58.694-24.436-25.414-25.6 12.753-58.88 58.554-58.88 45.708 0 83.875 33.373 58.508 58.88zM1097.588 465.408c-117.295 0-213.271-96.209-213.271-214.388 0-118.086 95.791-214.388 213.271-214.388 117.667 0 213.085 96.303 213.085 214.388 0 118.179-95.418 214.388-213.085 214.388zM932.911 843.171c-47.197-4.98-98.071-25.135-136.192-57.204 8.471 26.438 6.609 52.457 0.838 68.096-3.351 9.449-4.375 19.968-2.374 30.999 7.308 41.332 51.759 74.705 98.956 74.705 47.523 0 80.058-33.373 72.797-74.659-0.14-0.605-0.279-1.21-0.512-1.769-0.279-0.977 36.119-7.913 68.701-36.538 2.886-2.513 7.913-8.378 13.777-15.639-30.441 10.612-68.655 16.803-115.991 12.009zM462.243 843.124c-47.011 4.794-85.039-1.257-115.433-11.776 5.306 6.516 9.914 11.916 12.66 14.383 33.187 29.463 70.609 36.585 70.284 37.562-0.14 0.559-0.512 1.117-0.698 1.722-7.308 41.332 24.995 74.752 72.145 74.752 47.476 0 91.089-33.42 98.351-74.752 2.048-11.031-0.559-21.551-4.003-30.953-5.772-15.825-4.934-42.31 4.049-69.12-38.167 32.675-89.647 53.155-137.356 58.182z" />
<glyph unicode="&#xe912;" glyph-name="mans" horiz-adv-x="1425" d="M1316.775 434.065c-12.733 4.319-26.446 9.038-36.909 13.802 2.493 2.716 5.075 5.476 7.702 8.281 41.939 44.789 89.4 95.544 89.667 184.899l5.699 70.611c6.367 80.184-13.802 149.37-56.899 194.738-33.302 35.083-77.779 53.604-128.668 53.604-23.997 0-49.152-4.185-74.797-12.466-20.079-6.5-38.823-12.11-56.943-17.542-75.464-22.662-135.123-40.648-166.734-88.064-31.655 21.949-69.454 33.436-111.215 33.436-26.223 0-53.782-4.586-81.831-13.624-22.127-7.168-42.785-13.401-62.776-19.367-37.265-11.175-70.968-21.326-99.907-33.792-9.038 38.689-26.134 72.081-50.532 97.859-33.302 35.039-77.779 53.56-128.668 53.56-23.997 0-49.152-4.185-74.797-12.466-20.079-6.456-38.823-12.11-56.943-17.542-122.257-36.73-203.019-60.95-190.464-218.335l5.699-70.611c0.267-89.355 47.727-140.11 89.667-184.899 2.627-2.805 5.209-5.565 7.702-8.281-10.463-4.764-24.175-9.483-36.909-13.802-48.083-16.518-107.921-37.042-107.921-90.468l0.356-239.571h388.23v-23.641l0.356-144.384h646.812l0.356 142.692v25.333h388.274l0.312 239.571c0 53.426-59.837 73.951-107.921 90.468zM295.669 227.395l-152.353 157.518h304.707l-152.353-157.518zM434.621 603.826l2.849-35.217c-15.405-55.474-52.936-111.571-141.802-111.705-108.9 0.178-197.498 86.639-197.498 192.779v56.053c0 6.456 0.356 13 1.024 19.501 141.045 1.87 252.305 50.888 295.090 70.701 6.634-23.463 19.768-61.306 55.474-69.187-13.757-30.141-19.367-69.498-15.137-122.925zM1227.687 795.893c7.435-26.223 22.929-70.701 69.32-70.701h28.494c0.712-6.5 1.069-13 1.069-19.456v-56.053c0-106.14-88.643-192.601-197.498-192.779-83.879 0.134-124.26 49.063-143.449 91.225l2.76 34.549 2.226 30.319c2.404 41.583-1.825 80.273-12.199 114.51 119.051 10.106 211.211 50.799 249.277 68.385zM712.348 69.921l-167.936 173.59h335.872l-167.936-173.59zM932.152 535.396c0-118.161-98.616-214.372-219.759-214.55-121.233 0.178-219.804 96.39-219.804 214.55v61.752c0 7.791 0.445 15.672 1.336 23.552 158.453 1.603 283.069 57.656 328.526 78.759 7.747-28.004 24.042-78.803 75.019-78.803v0h27.915c1.291-14.47 3.562-28.449 6.767-41.939v-43.32zM1129.071 227.395l-152.398 157.518h304.751l-152.353-157.518z" />
<glyph unicode="&#xe913;" glyph-name="nokia" horiz-adv-x="1514" d="M1398.695 892.728c-183.029-51.022-342.506-2.716-411.514 20.302l-62.241 4.719c-64.067-8.548-152.442 54.673-257.603 40.114-214.016-59.882-328.615-113.798-372.024-114.955-69.498-1.781-118.161 25.511-187.971 49.82l-107.386-467.434 286.408-176.262c2.226-64.601 23.374-90.067 92.026-99.64 10.552-23.775 33.569-82.187 120.209-63.844-5.61-33.658 46.169-101.688 132.942-74.084 0.979-51.556 88.242-126.753 191.8-25.511 93.985-15.983 148.614-6.99 163.662 76.622 121.767-22.662 138.374 62.553 148.302 94.52 20.747 4.452 92.383 5.387 104.849 99.595 3.206 17.898 130.404 0.623 130.404 132.808l143.182 51.111-115.044 452.118zM870.088 21.037c6.322 0.312 33.881 41.138 30.497 63.176l5.254-0.579c89.978-28.538 10.374-108.366-35.751-62.598zM1213.306 328.237l-194.337 130.538c-31.655 25.6-71.947-9.839-34.549-41.138l171.32-123.904c66.515-42.118 4.185-118.784-58.813-74.084l-182.806 107.297c-31.343 23.285-62.019-27.47-37.087-42.118l176.44-113.709c64.245-40.248-0.935-104.403-57.522-65.135l-156.004 93.229c-26.179 78.225-83.078 81.119-154.669 53.649-81.519 113.664-152.487 45.679-226.304 6.367-28.806 51.734 0.846 53.693-58.279 32.946l-311.652 178.087 89.043 311.652c69.098-35.172 185.389-12.422 222.609 0 10.285 5.12 223.944 94.92 267.13 89.043 240.195-32.59 19.322 3.918 5.921-15.271-71.546-95.989-194.337-173.679-194.337-173.679-9.572-21.459-9.528-33.213-2.538-48.529 13.802-30.408 25.244-44.344 72.838-60.015 88.643-11.709 227.64 39.981 295.357 88.109 30.052 4.808 55.43 14.692 88.242-8.949l355.417-241.397c56.275-56.186-9.928-123.236-75.42-82.989z" />
<glyph unicode="&#xe914;" glyph-name="rating_down" horiz-adv-x="1070" d="M1036.422 603.203l-195.050 37.532c-23.552 4.497-31.076 33.080-12.555 47.816l52.090 41.227-116.246 152.665c-9.706 11.887-7.435 29.028 5.031 38.289l45.145 33.525c12.422 9.261 30.364 7.079 40.070-4.808l113.976-150.172 47.994 37.977c18.298 14.381 45.946 2.582 46.748-20.079l6.945-186.234c0.712-17.586-16.117-31.21-34.148-27.737zM690.799-63.866c-36.909 0-66.872 19.99-66.872 44.611v533.86c0 24.621 29.963 44.566 66.872 44.566s66.872-19.946 66.872-44.566v-533.86c0-24.621-29.963-44.611-66.872-44.611zM379.147-63.866c-36.909 0-66.872 19.99-66.872 44.611v711.947c0 24.576 29.963 44.566 66.872 44.566s66.872-19.99 66.872-44.566v-711.947c0-24.621-29.963-44.611-66.872-44.611zM67.495-63.866c-36.909 0-66.872 19.99-66.872 44.611v934.556c0 24.576 29.963 44.566 66.872 44.566s66.872-19.99 66.872-44.566v-934.556c0-24.621-29.963-44.611-66.872-44.611zM1002.451 425.606c36.909 0 66.872-19.99 66.872-44.566v-400.295c0-24.621-29.963-44.611-66.872-44.611s-66.872 19.99-66.872 44.611v400.295c0 24.576 29.963 44.566 66.872 44.566z" />
<glyph unicode="&#xe915;" glyph-name="libra" horiz-adv-x="1182" d="M1178.703 355.131l-170.535 345.246c3.742 4.884 6.065 10.949 6.065 17.605 0 15.951-12.8 28.869-28.593 28.869h-322.206c13.863 4.529 23.906 17.684 23.906 33.201v0c0 19.259-15.439 34.855-34.501 34.855h-12.682c18.786 14.848 30.956 37.927 30.956 63.921 0 44.82-35.998 81.172-80.345 81.172s-80.305-36.352-80.305-81.172c0-25.994 12.13-49.073 30.956-63.921h-12.721c-19.023 0-34.501-15.596-34.501-34.855v0c0-15.518 10.043-28.672 23.906-33.201h-322.206c-15.793 0-28.593-12.918-28.593-28.869 0-7.641 2.993-14.533 7.759-19.692l-172.229-348.711c-2.678-5.474-3.387-11.343-2.481-16.935-0.079-1.103-0.158-2.206-0.039-3.308 9.728-102.321 94.996-182.351 198.814-182.351 103.778 0 189.086 80.030 198.814 182.351 0.079 1.103 0.039 2.206-0.039 3.308 0.906 5.593 0.197 11.461-2.481 16.935l-167.7 339.495h324.49v-666.585h-266.122c-32.020 0-57.974-26.23-57.974-58.565 0-15.439 12.367-27.924 27.609-27.924h670.090c15.242 0 27.609 12.485 27.609 27.924 0 32.335-25.954 58.565-57.974 58.565h-266.122v666.585h321.733l-164.943-333.942c-2.678-5.435-3.387-11.343-2.481-16.896-0.079-1.103-0.118-2.206-0.039-3.308 9.728-102.321 95.035-182.351 198.814-182.351s189.086 80.030 198.814 182.351c0.079 1.103 0.039 2.206-0.039 3.308 0.906 5.553 0.197 11.461-2.481 16.896zM64.197 348.79l134.932 273.211 134.932-273.211h-269.863zM847.478 354.383l134.932 273.211 134.932-273.211h-269.863z" />
<glyph unicode="&#xe916;" glyph-name="metals" horiz-adv-x="1152" d="M817.28-64c-184.832 0-334.72 67.968-334.72 151.872v32.96c0 10.624 2.496 21.056 7.104 31.104 31.616-68.992 166.272-120.768 327.616-120.768s296.064 51.776 327.68 120.768c4.608-10.048 7.040-20.48 7.040-31.104v-32.96c0-83.904-149.888-151.872-334.72-151.872zM817.28 105.536c-184.832 0-334.72 68.032-334.72 151.872v32.96c0 10.624 2.496 21.056 7.104 31.104 31.616-68.992 166.272-120.768 327.616-120.768s296.064 51.84 327.68 120.768c4.608-10.048 7.040-20.48 7.040-31.104v-32.96c0-83.84-149.888-151.872-334.72-151.872zM817.28 284.224c-184.832 0-334.72 68.032-334.72 151.872v32.96c0 10.688 2.496 21.056 7.104 31.104 31.616-68.992 166.272-120.768 327.616-120.768s296.064 51.776 327.68 120.768c4.608-10.048 7.040-20.416 7.040-31.104v-32.96c0-83.84-149.888-151.872-334.72-151.872zM817.28 453.824c-184.832 0-334.72 67.968-334.72 151.808v32.96c0 10.688 2.496 21.056 7.104 31.104 31.616-68.928 166.272-120.768 327.616-120.768s296.064 51.84 327.68 120.768c4.608-10.048 7.040-20.416 7.040-31.104v-32.96c0-83.84-149.888-151.808-334.72-151.808zM817.28 623.36c-184.832 0-334.72 67.968-334.72 151.872v32.896c0 83.904 149.888 151.872 334.72 151.872s334.72-67.968 334.72-151.872v-32.896c0-83.904-149.888-151.872-334.72-151.872zM0 178.944v32.896c0 10.688 2.432 21.056 7.040 31.104 31.616-68.928 166.336-120.768 327.68-120.768 32.384 0 63.616 2.112 93.248 6.016v-40.32c0-18.432 4.288-36.224 12.48-53.056-33.216-5.056-68.8-7.744-105.728-7.744-184.896 0-334.72 67.968-334.72 151.872zM0 348.48v32.896c0 10.688 2.432 21.056 7.040 31.104 31.616-68.928 166.336-120.768 327.68-120.768 32.384 0 63.616 2.176 93.248 6.016v-95.168c-29.632-3.904-60.864-5.952-93.248-5.952-184.896 0-334.72 67.968-334.72 151.872zM0 518.016v32.896c0 83.904 149.824 151.872 334.72 151.872 32.384 0 63.616-2.048 93.248-5.952v-324.736c-29.632-3.84-60.864-5.952-93.248-5.952-184.896 0-334.72 67.968-334.72 151.872z" />
<glyph unicode="&#xe917;" glyph-name="oil" d="M981.561 58.482h-201.045l-190.009 413.241c14.165 17.749 24.292 39.253 29.013 62.521l130.276 48.242 88.86-150.414c8.135-13.767 24.576-19.74 39.31-14.279l61.952 22.812c14.791 5.404 23.78 20.821 21.618 36.807l-28.843 209.465c-3.698 26.795-12.629 52.508-26.34 75.662l-106.724 180.736c-8.078 13.767-24.519 19.797-39.31 14.336l-62.009-22.869c-14.734-5.404-23.723-20.764-21.504-36.75l24.007-174.364-130.048-48.014c-24.519 20.708-56.036 33.109-90.34 33.109-69.404 0-127.147-50.859-139.492-117.988l-244.167-90.226c-37.774-13.938-57.401-56.775-43.918-95.687 6.258-17.977 18.944-32.768 35.442-41.472v-304.868h-45.568c-23.211 0-42.553-18.318-42.553-42.268v-38.002c0-24.007 19.342-42.325 42.553-42.325h938.837c23.268 0 42.382 18.318 42.382 42.325v38.002c0 23.95-19.115 42.268-42.382 42.268zM480.484 617.643c29.127 0 52.679-24.064 52.679-53.817 0-29.696-23.552-53.817-52.679-53.817s-52.736 24.064-52.736 53.817c0 29.696 23.609 53.817 52.736 53.817zM154.965 58.482v304.469l199.964 73.33-173.682-377.799h-26.283zM315.335 58.482l165.433 359.822c0.057 0 0.114-0.284 0.228-0.284l165.433-359.538h-331.093z" />
<glyph unicode="&#xe918;" glyph-name="target" d="M1020.871 782.734l-123.506-122.937c-10.24-10.126-23.95-15.701-38.229-15.701-1.252 0-2.674 0-4.096 0.114l-3.129 0.228-70.599 5.348-242.859-241.778c-4.665-4.722-11.036-7.509-17.692-7.794l-28.615-1.422c-0.569 0-0.967 0-1.422 0-15.644 0-28.16 13.312-26.852 29.013l2.162 26.965c0.398 6.315 3.186 12.345 7.737 16.896l239.332 238.194-5.916 77.028-0.341 4.836c-1.195 15.701 4.551 31.061 15.644 42.155l123.62 122.994c2.162 2.162 4.836 3.129 7.566 3.129 5.291 0 10.354-3.755 10.752-9.899l6.485-83.285 31.403 31.289c6.144 6.258 14.507 9.33 22.585 9.33s16.27-3.072 22.528-9.33l19.001-19.001c12.572-12.459 12.572-32.54 0-45.056l-27.42-27.25 75.036-5.803c9.216-0.683 13.312-11.833 6.827-18.261zM666.908 490.325l1.82 1.82c13.71-29.070 21.39-61.554 21.39-95.801 0-125.212-101.945-226.645-227.669-226.645-125.781 0-227.669 101.547-227.669 226.702 0 125.212 101.888 226.645 227.669 226.645 34.418 0 67.015-7.623 96.256-21.276l-1.82-1.82-85.39-84.992c-3.015 0.171-6.030 0.284-9.045 0.284-65.934 0-119.524-53.248-119.524-118.898s53.362-118.955 119.41-118.955c66.048 0 119.524 53.305 119.524 118.955 0 2.958-0.114 5.973-0.341 8.988l85.39 84.992zM641.422 683.975c-51.94 32.142-113.209 50.688-178.972 50.688-187.733 0-339.911-151.495-339.911-338.318 0-186.88 152.292-338.375 340.025-338.375s339.911 151.495 339.911 338.375c0 65.308-18.66 126.35-50.972 178.119l42.325 42.155 58.823-4.551c2.276-0.114 4.551-0.228 6.713-0.228 3.812 0 7.68 0.228 11.435 0.796 34.532-64.512 54.101-138.069 54.101-216.292 0-254.236-207.076-460.345-462.45-460.345-255.431 0-462.45 206.108-462.45 460.345 0 254.18 207.019 460.288 462.336 460.288 76.629 0 148.878-18.603 212.423-51.371-0.512-5.234-0.626-10.638-0.171-15.986l5.177-67.186-38.343-38.116z" />
<glyph unicode="&#xe919;" glyph-name="marker" horiz-adv-x="740" d="M721.636 705.252c-3.812 13.653-11.548 28.217-17.294 40.96-68.608 157.525-218.51 213.959-339.57 213.959-162.076 0-340.594-103.765-364.43-317.668v-43.748c0-1.82 0.683-18.204 1.593-26.396 13.369-101.945 97.621-210.318 160.54-312.263 67.641-109.227 137.899-216.633 207.474-324.096 42.894 70.087 85.675 141.141 127.545 209.408 11.435 20.025 24.69 40.050 36.181 59.164 7.623 12.743 22.187 25.486 28.843 37.319 67.641 118.329 176.583 237.568 176.583 355.044v48.242c0 12.743-16.498 57.344-17.465 60.075zM367.73 485.888c-47.673 0-99.783 22.699-125.554 85.561-3.812 10.012-3.527 30.037-3.527 31.858v28.274c0 80.043 71.225 116.452 133.177 116.452 76.231 0 135.225-58.254 135.225-131.072 0-72.875-63.090-131.072-139.321-131.072z" />
<glyph unicode="&#xe91a;" glyph-name="envelope" horiz-adv-x="1365" d="M1365.333 832.085v-810.752c0-47.104-38.229-85.333-85.333-85.333h-1194.667c-47.104 0-85.333 38.229-85.333 85.333v810.752l682.667-554.752 682.667 554.752zM1280 960h-1194.667l597.333-512 597.333 512z" />
<glyph unicode="&#xe91b;" glyph-name="cart-2" horiz-adv-x="1297" d="M1293.039 743.458l-195.925-521.216c-7.236-19.388-25.395-32.154-45.67-32.154h-519.236c-20.275 0-38.434 12.766-45.739 32.154l-188.689 502.033-89.088 101.239h-144.043c-36.045 0-65.263 29.901-65.263 66.833 0 36.864 29.218 66.765 65.263 66.765 0 0 0 0 0.068 0h173.056c18.569 0 36.181-8.055 48.538-22.118l110.387-125.474h850.671c16.111 0 31.198-8.124 40.346-21.709 9.148-13.653 11.127-30.993 5.325-46.353zM608.188 137.318c54.135 0 97.963-44.851 97.963-100.215s-43.827-100.215-97.963-100.215c-54.067 0-97.963 44.851-97.963 100.215s43.895 100.215 97.963 100.215zM968.226 137.318c54.067 0 97.894-44.851 97.894-100.215s-43.827-100.215-97.894-100.215c-54.135 0-97.963 44.851-97.963 100.215s43.827 100.215 97.963 100.215z" />
<glyph unicode="&#xe91c;" glyph-name="hexagon" horiz-adv-x="1195" d="M895.905 959.848h-597.22l-298.591-511.981 298.61-511.981h597.22l298.61 511.981-298.629 511.981zM863.118-7.206h-530.868l-270.165 455.092 270.165 455.092h530.849l270.165-455.092-270.146-455.092z" />
<glyph unicode="&#xe91d;" glyph-name="earth" horiz-adv-x="1077" d="M1076.355 466.117c0-246.705-182.377-451.742-419.682-487.87 2.022 10.949 2.573 22.292 1.234 33.766 0 0-1.418 12.104-3.282 27.937 84.257 14.31 160.322 52.88 220.606 108.36-3.623 2.993-7.221 6.905-10.765 12.078-16.016 23.289 4.91 46.448 4.91 66.823 0 20.007-40.409 18.353-41.879 31.586-5.094 45.87 28.199 46.5 45.975 64.223 17.749 17.723-17.566 58-40.382 55.427-22.948-2.468-87.591 10.555-81.684 59.917 7.194 60.101-76.747 54.797-88.773 82.865-17.513 40.881 11.605 91.057 49.598 102.453 53.826 16.121 106.837 59.943 102.689 108.702-4.7 55.243-29.749 105.052-70.997 134.643-42.955 17.355-89.246 28.094-137.689 30.799-43.244-1.707-81.264-11.29-79.531-31.035 4.254-48.417 142.205-60.994 119.047-106.233-12.052-23.578-102.636-56.871-85.727-91.976 11.001-22.843 38.072-3.256 27.989-47.078-4.647-20.165-22.37-58.079-49.625-60.521-27.884-2.599-51.069 71.076-126.923 73.492-35.866 1.155-86.384-55.821-43.481-96.256 25.968-24.471 74.699 29.433 89.088-12.682 10.161-29.643-1.365-91.976 45.949-118.023 17.25-9.505 43.691-17.776 69.842-31.035-38.807-7.903-86.489-22.659-142.809-44.321l-47.472 12.498c19.876 16.515 52.145 28.121 44.032 64.171-11.947 52.985-104.107 33.004-167.647 96.414-19.509 19.43-61.072 84.021-60.915 161.608-31.665-60.022-49.703-128.315-49.703-200.73 0-22.292 1.707-44.19 4.989-65.589-0.761 0-1.497 0.131-2.232 0.131-20.007 0-39.647-4.201-57.843-12.13-4.017 25.285-6.144 51.174-6.144 77.588 0 272.121 221.893 493.542 494.618 493.542s494.618-221.394 494.618-493.542zM705.326 322.258l-120.806-55.401 1.89 26.256 78.244 35.262c-11.159 0.788-22.712 1.103-34.265 1.103-43.244 0-116.29-21.845-197.107-53.852l-259.125 68.214c-24.208 6.38-49.992 2.442-71.207-10.844l-12.734-7.982c-12.446-7.824-12.577-25.863-0.263-33.845l155.779-100.825c-37.205-18.983-72.52-38.282-103.634-56.688l-79.951 42.22c-13.049 6.879-28.488 7.693-42.194 2.232l-7.562-3.019c-11.29-4.516-16.016-17.907-10.056-28.488l44.032-78.060 0.026 0.026c-16.62-14.257-26.099-26.099-26.099-34.291 0-24.497 30.221-30.615 56.845-30.615 47.498 0 674.763 143.307 674.763 273.145 0 25.705-17.618 38.571-46.579 45.45zM440.845 68.779l138.030 48.522c6.091 2.127 12.577-1.917 13.338-8.297l12.104-103.24c3.019-25.81-10.896-50.622-34.501-61.571l-12.944-6.013c-8.087-3.755-17.671-1.733-23.552 4.936l-96.676 109.568c-4.7 5.33-2.494 13.732 4.201 16.095z" />
<glyph unicode="&#xe91e;" glyph-name="chart-refresh" horiz-adv-x="1060" d="M1018.258 596.34c9.965-38.75 15.273-79.333 15.273-121.148 0-121.172-44.42-231.968-117.866-316.996l-149.788 149.739c35.637 46.302 56.846 104.306 56.846 167.257 0 143.225-109.711 260.826-249.703 273.445v211.242c160.452-8.131 300.348-94.148 382.625-220.942l104.475-44.541-41.862-98.057zM911.707 222.064c28.761 41.259 50.162 87.030 63.457 135.238l-99.384-99.336 35.927-35.903zM820.599 313.123l30.233-30.208 136.783 136.734c2.316 18.337 3.547 36.892 3.547 55.543 0 7.070-0.217 14.163-0.555 21.209l-154.927-154.855c-4.512-9.675-9.555-19.182-15.080-28.423zM859.446 415.234l126.673 126.625c-2.244 14.791-5.188 29.461-8.903 43.937l-3.137 12.209-109.252-109.204c0.169-4.512 0.29-9.048 0.29-13.608 0-20.364-1.93-40.415-5.67-59.959zM615.413 913.022v-58.221l48.063 48.039c-15.804 4.271-31.873 7.673-48.063 10.182zM701.382 890.8l-85.969-85.945v-19.857c18.458-3.933 36.241-9.458 53.275-16.359l94.148 94.076c-19.737 10.93-40.294 20.292-61.454 28.085zM793.841 843.799l-91.349-91.301c19.544-10.809 37.761-23.573 54.409-38.074l88.84 88.792c-16.287 14.766-33.635 28.375-51.9 40.584zM870.907 778.484l-88.743-88.743c15.925-17.372 29.943-36.506 41.669-57.136l91.060 91.036c-13.174 19.399-27.892 37.736-43.986 54.843zM940.541 699.319l-100.277-100.204c8.734-20.774 15.321-42.683 19.496-65.436l140.33 140.257-59.548 25.383zM881.113 122.125c-44.396-41.862-96.706-75.449-154.42-98.274l-58.414-87.706-82.88 55.157c-12.33-0.917-24.78-1.399-37.35-1.399-52.069 0-102.207 8.204-149.233 23.38l79.092 196.379c22.391-5.887 45.892-9.048 70.141-9.048 70.744 0 135.214 26.734 183.905 70.623l149.16-149.112zM548.048 158.269c-14.718 0-29.412 1.013-43.937 3.016l-48.112-119.434c30.136-6.37 60.948-9.603 92.049-9.603 11.123 0 22.632 0.434 34.19 1.303l14.525 1.086 12.136-8.059 47.605-31.704 42.248 63.481 12.33 4.874c38.798 15.346 74.894 35.903 107.708 61.286l-90.167 90.143c-52.768-36.602-115.574-56.388-180.575-56.388zM273.372 475.192c0 143.225 109.711 260.826 249.727 273.445v211.218c-214.113-10.834-391.576-160.332-444.441-360.403l-78.634-76.486 62.854-64.591c6.49-191.095 123.56-354.153 289.249-427.31l78.827 195.68c-93.135 43.986-157.581 138.665-157.581 248.448z" />
<glyph unicode="&#xe91f;" glyph-name="chart-monitor" horiz-adv-x="1010" d="M948.476 263.797h-211.232l45.151-262.84c5.207-30.092-15.008-58.678-45.049-63.834-3.216-0.536-6.33-0.817-9.444-0.817-26.442 0-49.796 18.989-54.416 45.891l-48.392 281.6h-242.524l-48.392-281.6c-4.62-26.902-27.974-45.891-54.39-45.891-3.114 0-6.279 0.281-9.418 0.817-30.092 5.156-50.281 33.742-45.1 63.834l45.151 262.84h-209.165c-33.921 0-61.384 27.514-61.384 61.409v573.103c0 33.921 27.489 61.384 61.384 61.384h887.22c33.921 0 61.409-27.463 61.409-61.384v-573.103c0-33.895-27.489-61.409-61.409-61.409zM893.754 845.068h-785.968v-454.368h785.968v454.368zM264.372 565.689c0.179 0 0.383-0.051 0.587-0.051l40.786 62.66c-20.827 10.694-35.248 32.16-35.248 57.121 0 35.554 28.918 64.472 64.472 64.472 35.529 0 64.472-28.918 64.472-64.472 0-13.655-4.313-26.289-11.613-36.728l163.478-29.097 96.453 46.835c-2.297 5.921-3.675 12.277-3.675 18.989 0 29.301 23.839 53.165 53.165 53.165 29.301 0 53.14-23.864 53.089-53.191 0-29.301-23.813-53.14-53.114-53.14-8.55 0-16.463 2.195-23.584 5.768l-79.148-38.438c7.734-9.214 12.609-20.929 12.609-33.895 0-29.352-23.839-53.165-53.14-53.165s-53.114 23.839-53.114 53.165c0 8.831 2.348 17.024 6.202 24.349l-163.299 29.046-47.959-73.584c2.093-4.441 3.318-9.342 3.318-14.548 0-19.168-15.569-34.737-34.737-34.737-19.194 0-34.737 15.569-34.737 34.737 0 19.194 15.544 34.737 34.737 34.737zM697.249 669.135c8.984 0 16.284 7.3 16.284 16.309 0 8.984-7.3 16.309-16.284 16.309s-16.309-7.325-16.309-16.309c0-9.010 7.325-16.309 16.309-16.309zM553.986 549.405c8.984 0 16.284 7.3 16.284 16.284s-7.3 16.309-16.284 16.309c-9.010 0-16.309-7.325-16.309-16.309s7.3-16.284 16.309-16.284zM334.995 657.803c15.212 0 27.616 12.404 27.616 27.616 0 15.237-12.404 27.642-27.616 27.642-15.237 0-27.616-12.379-27.616-27.642 0-15.212 12.379-27.616 27.616-27.616z" />
<glyph unicode="&#xe920;" glyph-name="plus" d="M1024.158 467.417h-492.268v492.741h-58.998v-492.741h-472.812v-59.018h472.812v-472.32h58.998v472.32h492.268z" />
<glyph unicode="&#xe921;" glyph-name="phone" horiz-adv-x="769" d="M766.616 61.779l-135.391 232.868c-6.214 10.68-20.146 14.321-31.069 8.010l-124.76-71.506c-24.612 14.224-88.303 58.205-147.43 159.906-61.312 105.487-72.477 197.722-74.467 223.499l124.031 71.069c5.243 3.010 9.126 7.961 10.728 13.69 1.553 5.777 0.777 11.942-2.233 17.039l-135.391 232.868c-6.214 10.728-20.097 14.321-31.020 8.058l-138.838-79.565c-1.796-1.019-3.447-2.282-4.903-3.786l-0.291-0.146c-115.925-83.011-94.371-341.414 49.176-588.312 102.138-175.683 247.675-309.812 370.784-341.803 43.981-11.408 83.205-9.757 116.653 4.854l3.058 1.068c1.359 0.485 2.621 1.019 3.835 1.748l139.032 79.71c5.243 2.961 9.078 7.913 10.68 13.69s0.777 11.893-2.185 17.039z" />
<glyph unicode="&#xe922;" glyph-name="clock" d="M511.953-64c-282.345 0-512.047 229.702-512.047 512.093 0 282.345 229.702 512.047 512.047 512.047s512.093-229.702 512.093-512.047c0-282.391-229.748-512.093-512.093-512.093zM511.953 851.177c-222.255 0-403.13-180.829-403.13-403.084 0-222.301 180.876-403.13 403.13-403.13 222.301 0 403.13 180.829 403.13 403.13 0 222.255-180.829 403.084-403.13 403.084zM778.845 379.578h-272.291c-23.273 0-42.17 18.851-42.17 42.124v318.883c0 23.273 18.897 42.17 42.17 42.17s42.17-18.897 42.17-42.17v-276.713h230.121c23.273 0 42.17-18.851 42.17-42.17 0-23.273-18.897-42.124-42.17-42.124z" />
<glyph unicode="&#xe923;" glyph-name="person-globe" horiz-adv-x="922" d="M559.292 411.989l2.185 34.236c28.638-9.83 58.624-14.797 89.532-14.797 149.197 0 270.592 118.545 270.592 264.277s-121.395 264.294-270.592 264.294c-143.497 0-261.257-109.67-270.046-247.706h-84.087c-40.107 0-77.329-15.718-104.789-44.271-27.477-28.553-41.216-65.826-38.707-104.926l9.66-151.108c0.188-65.399 28.382-123.887 72.448-162.543v-26.436l-29.85-43.725-139.725-37.222c-38.81-10.342-65.911-45.005-65.911-84.292v-69.786c0-28.672 23.876-51.985 53.214-51.985h615.902c29.338 0 53.214 23.313 53.214 51.985v69.786c0 39.287-27.102 73.95-65.911 84.292l-139.725 37.222-29.85 43.725v26.436c44.066 38.656 72.26 97.143 72.448 162.543zM361.165 151.125l-90.419 73.591c27.136-14.899 57.873-23.313 90.419-23.313s63.3 8.414 90.419 23.313l-90.419-73.591zM256.119 193.434l79.889-65.024-43.691-42.667c-0.102-0.102-0.393-0.358-0.905-0.324-0.529 0.051-0.751 0.358-0.836 0.495l-53.914 79.002 19.456 28.518zM361.165 24.474c1.417 0 2.833 0.068 4.233 0.171l11.639-55.467h-31.744l11.639 55.467c1.399-0.102 2.816-0.171 4.233-0.171zM380.416 76.442c0-10.359-8.636-18.79-19.251-18.79s-19.251 8.431-19.251 18.79v10.82l19.251 18.807 19.251-18.807v-10.82zM386.321 128.41l79.889 65.024 19.456-28.518-53.914-79.002c-0.085-0.137-0.307-0.444-0.836-0.495-0.512-0.034-0.785 0.222-0.905 0.324l-43.691 42.667zM567.501 540.365c21.402 7.936 43.691 12.732 66.526 14.319v-87.962c-24.764 6.178-48.23 25.805-67.601 56.849l1.075 16.794zM773.444 521.677c6.161-3.669 12.169-7.612 18.005-11.844-12.783-9.25-26.573-17.271-41.148-23.876 6.315 7.97 12.305 16.777 17.92 26.368 1.792 3.055 3.533 6.178 5.222 9.353zM667.989 466.739v87.876c25.941-1.843 51.268-7.834 75.008-17.698-19.678-37.154-45.978-62.874-75.008-70.178zM667.989 587.913v91.204h110.609c-1.69-40.858-9.591-79.189-21.931-111.804-28.041 11.691-57.993 18.705-88.678 20.599zM667.989 712.294v91.221c30.686 1.894 60.638 8.909 88.678 20.599 12.339-32.631 20.224-70.946 21.931-111.821h-110.609zM667.989 836.813v87.876c29.030-7.322 55.33-33.024 75.008-70.178-23.74-9.865-49.067-15.872-75.008-17.698zM768.222 879.087c-5.615 9.609-11.605 18.398-17.92 26.385 14.575-6.622 28.365-14.626 41.165-23.876-5.854-4.233-11.861-8.175-18.022-11.844-1.69 3.174-3.43 6.298-5.222 9.335zM528.572 869.751c-6.161 3.669-12.186 7.612-18.022 11.844 12.8 9.25 26.59 17.254 41.165 23.876-6.315-7.987-12.305-16.777-17.937-26.385-1.775-3.038-3.516-6.161-5.205-9.335zM634.027 924.689v-87.876c-25.941 1.826-51.268 7.834-75.025 17.698 19.695 37.154 45.978 62.857 75.025 70.178zM634.027 803.516v-91.221h-110.609c1.69 40.875 9.574 79.189 21.931 111.821 28.041-11.691 57.993-18.705 88.678-20.599zM523.298 674.731c-0.034 1.348-0.068 2.833-0.085 4.386h110.814v-91.204c-22.135-1.331-43.844-5.308-64.87-11.861-0.956 34.321-14.49 66.577-38.912 91.972-2.236 2.321-4.574 4.54-6.946 6.707zM817.801 531.934c-9.694 7.441-19.849 14.199-30.396 20.241 14.814 37.751 23.467 81.271 25.156 126.942h74.462c-4.181-57.327-29.867-108.954-69.222-147.183zM887.023 712.294h-74.462c-1.69 45.67-10.342 89.207-25.156 126.959 10.53 6.025 20.702 12.783 30.396 20.224 39.356-38.229 65.041-89.839 69.222-147.183zM484.215 859.477c9.694-7.441 19.849-14.199 30.396-20.224-14.814-37.751-23.467-81.289-25.156-126.959h-74.462c4.181 57.344 29.867 108.954 69.222 147.183zM216.832 645.308c20.992 21.811 49.408 33.809 80.043 33.809h128.58c30.635 0 59.068-11.998 80.043-33.809s31.471-50.278 29.559-80.145l-3.191-49.92c-14.37 28.535-29.269 47.565-30.464 49.067-4.659 5.888-12.766 8.021-19.797 5.222-85.316-33.741-245.641-34.167-247.245-34.167-3.806 0-7.492-1.246-10.496-3.55-1.178-0.905-16.879-13.21-32.119-36.437l-4.471 69.786c-1.911 29.867 8.585 58.334 29.559 80.145zM197.018 411.887c5.103 49.425 33.382 80.401 43.895 90.351 30.549 0.375 157.594 3.669 240.725 31.898 13.978-20.565 43.691-70.349 43.691-121.515 0-98.167-73.643-178.039-164.164-178.039-90.3 0-163.772 79.462-164.147 177.306zM33.963-12.015v69.786c0 24.371 16.811 45.875 40.875 52.292l134.059 35.703 53.419-78.251c5.871-8.585 15.241-14.080 25.754-15.104 1.161-0.102 2.338-0.171 3.499-0.171 7.1 0 13.961 2.116 19.763 6.007 2.953-7.697 7.714-14.524 13.79-20.002l-14.507-69.069h-149.845v54.187c0 9.165-7.595 16.589-16.981 16.589s-16.981-7.424-16.981-16.589v-54.187h-73.591c-10.615 0-19.251 8.431-19.251 18.807zM688.367 57.771v-69.786c0-10.377-8.636-18.807-19.251-18.807h-73.591v54.187c0 9.165-7.595 16.589-16.981 16.589-9.37 0-16.981-7.424-16.981-16.589v-54.187h-149.845l-14.507 69.069c6.076 5.478 10.837 12.305 13.79 19.985 5.82-3.891 12.663-5.99 19.78-5.99 1.161 0 2.321 0.051 3.482 0.171 10.513 1.007 19.9 6.519 25.754 15.104l53.419 78.251 134.059-35.721c24.064-6.4 40.875-27.904 40.875-52.275z" />
<glyph unicode="&#xe924;" glyph-name="head" horiz-adv-x="768" d="M762.487 436.787c6.537-12.971 7.305-28.177 2.116-41.711-5.188-13.551-15.923-24.405-29.474-29.781l-43.537-17.306-11.503-137.199c-3.772-44.919-42.274-80.094-87.654-80.094h-59.136c-49.732 0-90.18-40.175-90.18-89.566v-65.877c0-14.37-7.543-27.136-20.156-34.167-6.093-3.396-12.715-5.086-19.319-5.086-7.083 0-14.148 1.946-20.548 5.82l-286.037 173.619c-4.966 3.004-7.987 8.363-7.987 14.148 0 98.236-22.938 176.674-45.107 252.518-21.606 73.95-43.964 150.409-43.964 242.859 0 184.747 151.33 335.036 337.34 335.036h71.253c166.383 0 301.722-134.417 301.722-299.657 0-1.092-0.102-2.185-0.324-3.243l-13.022-64.666c-2.355-11.742-0.683-24.132 4.71-34.85l60.809-120.798zM664.218 598.955l12.698 63.010c-0.87 146.193-120.9 264.858-268.322 264.858h-71.253c-167.595 0-303.94-135.407-303.94-301.858 0-87.723 20.702-158.601 42.65-233.609 22.118-75.708 44.971-153.907 46.353-252.433l278.101-168.789c2.645-1.587 4.966-0.751 6.11-0.119 1.161 0.649 3.106 2.185 3.106 5.239v65.877c0 67.669 55.433 122.726 123.58 122.726h59.119c28.16 0 52.036 21.828 54.374 49.681l12.373 147.422c0.512 6.246 4.557 11.691 10.428 14.029l53.129 21.094c4.966 1.98 8.755 5.803 10.667 10.769 1.894 4.983 1.621 10.342-0.768 15.087l-60.826 120.815c-8.704 17.289-11.383 37.239-7.578 56.201zM556.51 519.919c-1.86 0-3.738 0.307-5.581 0.939-8.687 3.072-13.244 12.544-10.172 21.18 5.683 15.957 9.284 32.256 10.735 48.64h-18.193c-9.233 0-16.708 7.441-16.708 16.589 0 9.165 7.475 16.589 16.708 16.589h18.21c-1.997 23.62-8.243 46.046-17.971 66.543l-15.753-9.028c-2.628-1.519-5.513-2.219-8.346-2.219-5.769 0-11.383 2.97-14.473 8.277-4.608 7.936-1.877 18.091 6.11 22.665l15.718 9.011c-13.346 18.944-29.952 35.447-49.033 48.691l-9.079-15.599c-3.089-5.325-8.704-8.294-14.473-8.294-2.833 0-5.7 0.717-8.329 2.219-7.987 4.574-10.735 14.729-6.11 22.665l9.097 15.65c-20.651 9.66-43.23 15.855-67.004 17.835v-18.074c0-9.165-7.475-16.589-16.708-16.589-9.216 0-16.691 7.424-16.691 16.589v18.074c-23.791-1.98-46.37-8.175-67.004-17.835l9.097-15.65c4.608-7.936 1.877-18.091-6.11-22.665-2.645-1.502-5.513-2.219-8.346-2.219-5.769 0-11.383 2.97-14.473 8.294l-9.062 15.599c-19.098-13.244-35.703-29.747-49.033-48.691l15.701-9.011c7.987-4.574 10.718-14.729 6.11-22.665-3.089-5.308-8.704-8.277-14.473-8.277-2.833 0-5.7 0.7-8.346 2.219l-15.753 9.028c-9.711-20.497-15.957-42.923-17.971-66.543h18.21c9.233 0 16.708-7.424 16.708-16.589 0-9.148-7.475-16.589-16.708-16.589h-18.176c1.451-16.384 5.035-32.683 10.718-48.64 3.089-8.636-1.468-18.108-10.172-21.18-8.687-3.055-18.227 1.468-21.316 10.121-8.875 24.9-13.38 50.569-13.38 76.288 0 126.208 103.39 228.898 230.468 228.898s230.468-102.69 230.468-228.898c0-25.719-4.506-51.388-13.38-76.288-2.423-6.81-8.875-11.059-15.735-11.059zM355.157 659.234c8.346 0 16.23-1.946 23.245-5.427l54.016 53.641c6.519 6.485 17.101 6.485 23.62 0 6.519-6.468 6.519-16.964 0-23.45l-54.016-53.641c3.482-6.963 5.461-14.797 5.461-23.091 0-28.655-23.467-51.968-52.326-51.968s-52.326 23.313-52.326 51.968c0 28.655 23.467 51.968 52.326 51.968zM355.157 588.476c10.445 0 18.927 8.431 18.927 18.79 0 10.377-8.482 18.807-18.927 18.807s-18.927-8.431-18.927-18.807c0-10.359 8.482-18.79 18.927-18.79z" />
<glyph unicode="&#xe925;" glyph-name="arm-leaf" horiz-adv-x="922" d="M886.579 192.631l-172.851-105.216c-0.324-0.188-0.649-0.375-0.973-0.546l-6.195-3.209c-0.324-0.171-0.666-0.341-1.007-0.478l-122.061-53.077c-8.602-3.738-17.715-5.632-27.068-5.632h-258.611c-20.617 0-40.704-7.373-56.525-20.77l-75.554-63.863c-3.038-2.56-6.758-3.84-10.462-3.84-4.198 0-8.38 1.638-11.571 4.864-10.377 10.53-32.239 31.71-55.381 54.118-39.731 38.485-66.219 64.239-72.38 71.492-23.262 27.426-20.804 69.888 5.581 96.649l137.523 139.52c11.759 11.93 27.392 19.115 43.981 20.241l252.826 17.101 96.29 32.563c17.749 6.025 37.444 4.352 53.999-4.591 16.811-9.079 28.877-24.371 33.946-43.059 9.677-35.618-11.008-73.097-47.121-85.419l-93.303-33.809c-0.819-0.307-1.468-0.905-1.843-1.673-0.666-1.365-0.29-2.509 0.154-3.243 0.444-0.7 1.28-1.57 2.782-1.57h122.982l23.433 10.189 170.428 103.748c17.579 10.718 38.81 12.902 58.214 5.939 19.422-6.946 34.662-22.357 41.83-42.24 11.162-31.027-1.894-66.441-31.061-84.19zM886.921 265.438c-3.857 10.701-11.674 18.637-21.999 22.34-10.172 3.652-21.282 2.509-30.498-3.106l-171.383-104.311c-0.631-0.393-1.297-0.734-1.963-1.024l-27.563-11.981c-2.031-0.887-4.215-1.331-6.434-1.331h-126.327c-12.51 0-23.927 6.434-30.549 17.203-6.605 10.786-7.253 24.013-1.741 35.413 4.164 8.567 11.332 15.053 20.19 18.261l93.457 33.877c0.119 0.051 0.222 0.085 0.341 0.119 19.388 6.571 31.095 26.829 26.112 45.175-2.679 9.83-8.994 17.852-17.801 22.613-5.291 2.85-11.025 4.301-16.828 4.301-3.823 0-7.68-0.631-11.435-1.911l-98.304-33.229c-1.314-0.444-2.679-0.717-4.079-0.819l-254.925-17.237c-8.687-0.597-16.862-4.352-23.023-10.598l-137.54-139.52c-14.114-14.319-15.855-37.461-3.891-51.558 5.564-6.571 41.387-41.25 70.161-69.137 17.118-16.572 33.536-32.478 45.278-44.032l64.171 54.255c21.692 18.347 49.203 28.45 77.466 28.45h258.611c4.898 0 9.677 0.99 14.199 2.953l121.549 52.838 5.205 2.714 172.373 104.926c15.497 9.421 22.869 28.501 17.169 44.356zM607.659 558.985v-77.466c0 0 0-0.017 0-0.017v-51.2c0-9.148-7.322-16.572-16.35-16.572-9.045 0-16.367 7.424-16.367 16.572v38.332c-157.662 22.17-281.225 151.945-296.414 313.975-0.461 4.932 1.263 9.796 4.71 13.295s8.26 5.257 13.107 4.796c123.085-11.878 227.277-89.054 278.596-197.018v112.913c-93.013 15.787-165.291 93.406-174.336 189.867-0.461 4.915 1.28 9.796 4.727 13.295s8.26 5.257 13.107 4.779c65.673-6.332 122.505-43.264 156.501-96.597v62.396c0 38.417 30.822 69.666 68.676 69.666 9.045 0 16.367-7.424 16.367-16.589 0-9.148-7.322-16.589-16.367-16.589-19.831 0-35.959-16.367-35.959-36.489v-196.301c51.319 107.964 155.511 185.139 278.596 197.001 4.847 0.478 9.66-1.28 13.107-4.779s5.171-8.38 4.71-13.295c-15.172-162.031-138.752-291.806-296.414-313.975zM313.702 765.013c19.712-123.546 109.534-223.061 226.765-255.369l-135.134 137.079c-6.383 6.468-6.383 16.964 0 23.45s16.725 6.485 23.125 0l138.325-140.339c-30.379 121.429-129.553 214.886-253.082 235.179zM436.463 888.166c14.763-68.42 67.806-122.231 135.253-137.216-14.746 68.437-67.806 122.249-135.253 137.216zM615.817 620.186l138.342 140.339c6.383 6.468 16.725 6.468 23.108 0 6.4-6.485 6.4-16.981 0-23.467l-135.117-137.079c117.214 32.324 207.036 131.84 226.748 255.369-123.529-20.275-222.703-113.732-253.082-235.162z" />
<glyph unicode="&#xe926;" glyph-name="crown" horiz-adv-x="1042" d="M978.523 155.301h-919.845l-58.679 610.834 290.816-99.237 228.041 293.102 228.206-293.285 295.223 99.2-63.762-610.615zM699.794 507.045l-180.937 232.558-181.083-232.741-183.589 62.665 26.679-277.76h676.498l29.038 277.979-186.606-62.702zM986.021-64h-932.827v136.485h932.827v-136.485z" />
<glyph unicode="&#xe927;" glyph-name="cup" horiz-adv-x="1008" d="M803.644 438.258v41.534c1.642-0.038 3.285-0.113 4.946-0.113 109.687 0 198.929 89.279 198.929 199.023 0 109.725-89.241 199.004-198.929 199.004-1.661 0-3.304-0.076-4.946-0.113v82.426h-599.523v-82.426c-1.642 0.038-3.285 0.113-4.946 0.113-109.706 0-198.947-89.279-198.947-199.004 0-109.744 89.241-199.023 198.947-199.023 1.661 0 3.285 0.076 4.946 0.113v-41.534l138.61-87.165-82.539-288.963h-114.955v-126.131h717.291v126.131h-114.973l-82.52 288.963 138.61 87.165zM808.59 751.575c40.175 0 72.854-32.699 72.854-72.873 0-40.194-32.68-72.873-72.854-72.873-1.661 0-3.304 0.076-4.946 0.17v145.369c1.624 0.113 3.285 0.208 4.946 0.208zM199.174 605.829c-40.175 0-72.854 32.68-72.854 72.873 0 40.175 32.68 72.873 72.854 72.873 1.661 0 3.304-0.094 4.946-0.208v-145.369c-1.642-0.094-3.285-0.17-4.946-0.17zM330.195 833.888h347.356v-325.928l-173.668-109.215-173.668 109.215v325.928h-0.019zM616.439 62.131h-225.114l62.565 219.073 49.992-31.434 49.992 31.434 62.565-219.073z" />
<glyph unicode="&#xe928;" glyph-name="user" horiz-adv-x="930" d="M782.164-63.982c-33.014 140.461-162.523 245.662-317.218 245.662s-284.169-105.236-317.183-245.662h-141.585c34.769 215.282 226.304 376.33 459.084 376.33 232.745 0 424.034-161.049 458.768-376.33h-141.865zM465.261 348.556c-169.912 0-308.232 137.249-308.232 305.792 0 168.596 138.267 305.792 308.232 305.792 170 0 308.32-137.144 308.32-305.792 0-168.543-138.32-305.792-308.32-305.792zM465.226 813.536c-91.968 0-166.788-74.732-166.788-166.612s74.82-166.612 166.788-166.612c92.055 0 166.841 74.732 166.841 166.612s-74.873 166.612-166.841 166.612z" />
<glyph unicode="&#xe929;" glyph-name="polygon" horiz-adv-x="1059" d="M1058.712 448l-167.867 289.983h-258.742l-128.503 222.017h-335.751l-167.849-289.983 128.503-222.017-128.503-222.017 167.849-289.983h335.751l128.503 222.017h258.76l167.849 289.983zM246.576 824.068h178.297l89.157-154.051-89.157-154.051h-178.297l-89.175 154.051 89.175 154.051zM424.873 71.932h-178.297l-89.175 154.051 89.175 154.051h178.297l89.157-154.051-89.157-154.051zM633.839 293.949l-89.175 154.051 89.175 154.051h178.28l89.175-154.051-89.175-154.051h-178.28z" />
<glyph unicode="&#xe92a;" glyph-name="phone6" d="M752.5-64c-26.764 0-53.201 4.515-78.429 13.452-312.739 110.639-560.407 364.823-662.621 680.029-30.72 94.767 1.862 198.982 81.036 259.351l50.455 38.447c28.020 21.411 61.58 32.721 96.954 32.721 60.183 0 114.781-33.327 142.336-86.947l85.318-165.748c8.099-15.732 12.381-33.373 12.381-51.060 0-28.067-10.473-54.924-29.51-75.636l-17.734-19.363c-17.687-19.177-21.504-47.616-9.542-70.749 29.137-56.46 74.38-101.702 130.932-130.839 22.761-11.729 52.038-7.727 70.842 9.542l19.363 17.734c33.652 30.953 86.156 38.074 126.79 17.129l165.888-85.225c53.713-27.555 87.087-82.060 87.087-142.243 0-42.263-16.431-82.153-46.22-112.314l-57.763-58.415c-43.892-44.404-104.913-69.865-167.564-69.865zM239.895 864.070c-14.15 0-27.508-4.515-38.679-13.033l-50.455-38.493c-46.871-35.7-66.141-97.42-47.988-153.46 93.091-286.999 318.604-518.47 603.322-619.194 49.897-17.641 108.591-4.096 145.641 33.373l57.716 58.415c11.962 12.102 18.572 28.067 18.572 44.916 0 24.064-13.405 45.894-34.956 56.972l-165.888 85.178c-6.656 3.444-14.848 0.419-17.967-2.467l-19.363-17.78c-47.802-43.846-121.996-53.853-179.712-24.111-74.426 38.353-134.051 97.885-172.311 172.172-30.301 58.787-20.62 130.932 24.111 179.572l17.734 19.316c1.908 2.095 4.236 5.679 4.236 10.799 0 2.513-0.605 4.934-1.722 7.168l-85.318 165.748c-11.031 21.551-32.908 34.909-56.972 34.909z" />
<glyph unicode="&#xe92b;" glyph-name="clock6" d="M512-64c-282.764 0-512 229.236-512 512s229.236 512 512 512c282.764 0 512-229.236 512-512s-229.236-512-512-512zM512 860.905c-227.7 0-412.905-185.204-412.905-412.905 0-227.654 185.204-412.905 412.905-412.905 227.654 0 412.905 185.251 412.905 412.905 0 227.7-185.251 412.905-412.905 412.905zM743.238 398.476h-280.809v313.809c0 27.369 22.202 49.524 49.571 49.524s49.524-22.156 49.524-49.524v-214.714h181.713c27.322 0 49.524-22.202 49.524-49.571s-22.202-49.524-49.524-49.524z" />
<glyph unicode="&#xe92c;" glyph-name="pin6" horiz-adv-x="745" d="M685.289 367.849l-247.715-395.217c-13.824-22.016-37.888-36.631-65.21-36.631-27.369 0-51.386 14.615-65.21 36.631l-247.715 395.217c-37.609 59.997-59.439 131.444-59.439 208.151 0 212.061 166.726 384 372.364 384s372.364-171.939 372.364-384c0-76.707-21.83-148.154-59.439-208.151zM372.364 864.023c-153.972 0-279.273-129.21-279.273-288.023 0-55.622 15.407-109.568 44.544-156.067l234.729-374.505 234.775 374.505c29.091 46.499 44.497 100.445 44.497 156.067 0 158.813-125.3 288.023-279.273 288.023zM372.364 416.023c-85.69 0-155.136 71.633-155.136 159.977 0 88.39 69.446 160.023 155.136 160.023s155.136-71.633 155.136-160.023c0-88.343-69.446-159.977-155.136-159.977zM372.364 640c-34.211 0-62.045-28.719-62.045-64s27.834-64 62.045-64c34.211 0 62.045 28.719 62.045 64s-27.834 64-62.045 64z" />
<glyph unicode="&#xe92d;" glyph-name="lorry6" d="M0 800v-608h132.992c14.304-55.040 63.712-96 123.008-96s108.704 40.96 123.008 96h297.984c14.304-55.040 63.712-96 123.008-96s108.704 40.96 123.008 96h100.992v260.992l-2.016 5.024-64 192-6.976 21.984h-279.008v128h-672zM64 736h544v-480h-228.992c-14.304 55.040-63.712 96-123.008 96s-108.704-40.96-123.008-96h-68.992v480zM488.992 663.008l-168.992-168.992-90.112 90.112-45.984-46.016 113.088-113.088 23.008-22.016 23.008 22.016 192 191.968-46.016 46.016zM672 608h232.992l55.008-164v-188h-36.992c-14.304 55.040-63.712 96-123.008 96s-108.704-40.96-123.008-96h-4.992v352zM256 288c35.712 0 64-28.256 64-64 0-35.712-28.288-64-64-64-35.744 0-64 28.288-64 64 0 35.744 28.256 64 64 64zM800 288c35.712 0 64-28.256 64-64 0-35.712-28.288-64-64-64s-64 28.288-64 64c0 35.744 28.288 64 64 64z" />
<glyph unicode="&#xe92e;" glyph-name="lamp6" horiz-adv-x="545" d="M514.43 627.448l-461.807-121.039c-3.581-0.895-7.193-1.343-10.71-1.343-18.127 0-34.783 11.861-39.707 29.828-5.851 21.452 7.129 43.511 29.125 49.298l461.775 121.070c21.899 5.595 44.502-7.001 50.353-28.485 5.946-21.42-7.097-43.543-29.029-49.33zM514.43 783.621l-461.807-121.039c-3.581-0.927-7.193-1.343-10.71-1.343-18.127 0-34.783 11.861-39.707 29.828-5.851 21.42 7.129 43.543 29.125 49.298l461.775 121.039c21.899 5.627 44.502-6.969 50.353-28.453 5.946-21.452-7.097-43.543-29.029-49.33zM287.091 880.203l-234.5-61.414c-3.581-0.927-7.193-1.375-10.71-1.375-18.095 0-34.783 11.893-39.675 29.86-5.946 21.42 7.097 43.511 29.125 49.298l234.404 61.382c21.963 5.595 44.502-6.937 50.417-28.453 5.914-21.42-7.129-43.543-29.061-49.298zM31.331 428.051l461.775 121.039c21.899 5.595 44.502-6.969 50.417-28.485 5.851-21.42-7.129-43.447-29.125-49.266l-129.766-34.016v-85.712h-63.94v68.959l-95.91-25.128v-43.831h-63.94v27.079l-108.219-28.357c-3.581-0.927-7.193-1.375-10.71-1.375-18.127 0-34.783 11.797-39.707 29.796-5.851 21.484 7.129 43.543 29.125 49.298zM87.214 288.054h371.3c12.308 0 22.443-9.719 22.443-21.644v-13.619c0-11.957-6.042-29.444-13.459-38.876l-40.314-51.823c-7.417-9.495-13.491-27.047-13.491-38.876v-43.223c0-11.861-10.071-21.612-22.379-21.612h-22.699c-1.407-4.796 1.375-15.186 1.375-25.928 0-8.568 0-26.439 0-34.879 0-14.514-8.984-26.183-19.981-26.183h-34.624c0.735-2.781 1.407-5.723 1.407-8.792 0-14.45-8.952-26.183-20.013-26.183h-47.891c-10.966 0-19.949 11.733-19.949 26.183 0 3.165 0.575 6.010 1.343 8.792h-34.624c-10.998 0-19.917 11.669-19.917 26.183 0 8.376 0 26.375 0 34.879 0 10.71 2.749 21.132 1.343 25.928h-22.667c-12.276 0-22.379 9.751-22.379 21.612v43.223c0 11.861-6.074 29.38-13.491 38.876l-40.314 51.823c-7.385 9.431-13.427 26.919-13.427 38.876v13.619c0 11.925 10.103 21.644 22.411 21.644zM160.777 204.708c0-6.522 3.229-16.081 7.225-21.196l21.708-28.293c3.996-5.179 7.257-14.738 7.257-21.196v-23.562c0-6.49 5.435-11.797 12.053-11.797h12.213c0.767-2.622-0.735-8.28-0.735-14.131 0-4.636 0-14.45 0-19.022 0-7.929 4.796-14.291 10.742-14.291h18.639c-0.416-1.503-0.735-3.069-0.735-4.796 0-7.897 4.859-14.291 10.742-14.291h25.8c5.946 0 10.774 6.394 10.774 14.291 0 1.662-0.352 3.293-0.767 4.796h18.639c5.946 0 10.774 6.362 10.774 14.291 0 4.604 0 14.355 0 19.022 0 5.851-1.503 11.509-0.735 14.131h12.213c6.618 0 12.053 5.307 12.053 11.797v23.562c0 6.458 3.261 16.017 7.257 21.196l21.708 28.293c3.996 5.115 7.257 14.674 7.257 21.196v7.417c0 6.522-5.467 11.829-12.085 11.829h-199.941c-6.618 0-12.053-5.307-12.053-11.829v-7.417z" />
<glyph unicode="&#xe92f;" glyph-name="building6" d="M512 920.615l-14.769-6.105-472.615-193.378-24.615-11.028v-104.015h78.769v-434.53h-78.769v-196.175h1024v196.175h-78.769v434.53h78.769v104.015l-24.615 11.028-487.385 199.483zM512 834.954l369.231-150.528h-738.462l369.231 150.528zM157.538 606.090h78.769v-434.53h-78.769v434.53zM315.077 606.090h78.769v-434.53h-78.769v434.53zM472.615 606.090h78.769v-434.53h-78.769v434.53zM630.154 606.090h78.769v-434.53h-78.769v434.53zM787.692 606.090h78.769v-434.53h-78.769v434.53zM78.769 93.066h866.462v-39.227h-866.462v39.227z" />
<glyph unicode="&#xe930;" glyph-name="cart6" d="M1023.904 639.52c-0.096-2.4 0.192-4.8-0.448-7.2l-128.384-435.712c0.224-1.568 0.928-2.944 0.928-4.576 0-15.84-11.744-28.416-26.88-30.944-1.664-0.448-3.232-0.864-4.96-0.992-0.064 0-0.096-0.032-0.16-0.032h-448c-5.568 0-10.56 1.792-15.104 4.288-2.208-1.312-4.32-2.848-6.88-3.584-16.192-4.544-32.832 5.536-37.152 22.496l-158.656 680.768h-166.208c-17.664 0-32 14.368-32 32.032 0 17.632 14.336 31.968 32 31.968h192c0.064 0 0.096-0.032 0.16-0.032 1.728-0.16 3.296-0.576 4.96-1.024 15.136-2.528 26.88-15.104 26.88-30.912 0-2.304-0.864-4.32-1.312-6.464l50.688-217.536h684.384c0.48 0.064 0.96-0.064 1.408 0h0.832c0.128 0 0.256-0.096 0.384-0.096 3.168 0.192 6.4 0.288 9.632-0.64 13.6-3.808 22.016-16.864 21.92-31.008 0-0.128 0.064-0.192 0.064-0.288 0-0.192-0.096-0.352-0.096-0.512zM320.32 608.064l89.76-385.216c1.984 0.384 3.808 1.184 5.92 1.184h423.68l113.152 384.032h-632.512zM448 96.064c35.328 0 64-28.672 64-64 0-35.392-28.672-64-64-64-35.36 0-64 28.608-64 64 0 35.328 28.64 64 64 64zM768 96.064c35.328 0 64-28.672 64-64 0-35.392-28.672-64-64-64-35.36 0-64 28.608-64 64 0 35.328 28.64 64 64 64z" />
<glyph unicode="&#xe931;" glyph-name="line-graph6" d="M992 832.096h-32v-576c0-35.36-28.672-64.032-64-64.032h-276.416l79.648-146.624c9.824-14.528 4-33.152-13.024-41.568-16.992-8.352-38.752-3.392-48.576 11.136l-88.864 163.712c-2.88 4.224-4.032 8.8-4.352 13.344h-64.832c-0.32-4.544-1.504-9.12-4.352-13.344l-88.896-163.712c-9.824-14.528-31.552-19.488-48.576-11.136-16.992 8.416-22.816 27.040-12.992 41.568l79.616 146.624h-276.384c-35.36 0-64 28.672-64 64.032v576h-32c-17.664 0-32 14.304-32 32 0 17.664 14.336 31.968 32 31.968h960c17.664 0 32-14.304 32-31.968 0-17.696-14.336-32-32-32zM896 832.032h-31.712c-0.096 0-0.192 0.064-0.288 0.064h-704c-0.128 0-0.192-0.064-0.32-0.064h-31.68v-31.936c0-0.032 0-0.032 0-0.032v-511.968c0-17.696 14.304-32 32-32h704c17.664 0 32 14.304 32 32v543.936zM356.288 623.84c0.256 0.512 0.768 0.768 1.056 1.216 1.344 1.984 2.912 3.744 4.768 5.44 1.952 1.888 4 3.456 6.304 4.768 0.512 0.288 0.8 0.768 1.344 1.024 0.576 0.288 1.216 0.256 1.76 0.512 2.656 1.152 5.28 1.92 8.128 2.304 14.816 2.944 30.688-2.080 38.688-13.952l156.288-111.296 197.664 180.512c8.832 15.296 28.416 20.544 43.712 11.712s20.544-28.416 11.712-43.712l-224-204.544c-8.832-15.328-28.416-20.576-43.712-11.744-3.584 2.048-6.464 4.8-8.864 7.84-3.744 2.368-7.008 5.44-9.504 9.088l-148.8 106.016-141.12-168.672c-8.832-15.424-28.416-20.704-43.712-11.808-15.328 8.928-20.576 28.608-11.712 44.032l160 191.264z" />
<glyph unicode="&#xe932;" glyph-name="plane6" d="M935.392 895.488v0c10.464 0 17.792-1.952 21.632-3.392 4.608-12.288 10.752-56.224-34.592-101.664l-231.424-231.648 1.632-28.704c3.52-60.16 10.048-167.936 15.648-260.352 4.96-82.24 9.632-159.904 9.952-166.496 0.16-4.544 0.224-5.6-4-10.752-9.472-11.488-27.136-31.008-41.984-47.168-23.072 62.24-71.552 193.632-98.336 267.168l-34.4 94.656-71.168-71.2-130.848-125.984-18.24-18.208-0.544-25.76c-0.448-20.544-0.352-57.472-0.288-89.984 0.064-22.656 0.128-43.232-0.032-54.592-0.288-0.544 4.384-1.152 3.936-1.888-2.784 4.48-5.792 9.28-8.96 14.304-26.368 42.144-62.88 100.384-74.048 118.56l-8.128 13.344-13.376 8.032c-48.64 29.44-102.496 63.36-135.36 84.544 1.12 0.736 2.080-2.752 2.816-2.368h2.144c10.336 0 27.424-0.224 46.592-0.512 25.056-0.352 53.472-0.736 75.232-0.736 8.32 0 15.744 0.064 21.696 0.192l25.728 0.576 18.208 18.24 125.984 130.080 70.912 70.976-94.112 34.688c-70.72 26.016-206.208 76.672-269.568 100.48 16.224 14.976 35.84 32.768 47.264 42.24 3.2 2.624 5.664 3.968 7.392 3.968l2.24-0.032c7.104-0.384 94.88-6.112 179.776-11.648 90.112-5.888 191.808-12.544 249.632-16.224l28.896-1.792 231.488 231.68c32.512 32.544 64.448 37.376 80.608 37.376zM935.392 959.712c-37.888 0-84.384-14.56-125.952-56.192l-211.008-211.168c-118.848 7.488-423.232 27.648-430.784 27.872-1.344 0.032-3.008 0.096-4.896 0.096-10.272 0-28.032-1.952-48.224-18.656-23.712-19.68-73.152-66.176-73.152-66.176-11.904-11.968-17.952-26.784-16.512-40.736 0.864-8.448 5.44-23.808 26.112-31.872 12.544-4.96 212.32-79.712 304.576-113.696l-126.016-130.112c-5.568-0.128-12.48-0.192-20.288-0.192-38.432 0-97.984 1.248-121.824 1.248-3.168 0-5.696 0-7.488-0.064-7.264-0.192-22.304 3.36-61.952-29.824l-2.848-2.624c-11.872-11.936-14.656-23.808-14.912-31.648-0.256-8.064 1.888-19.744 13.568-29.12 7.008-5.664 97.056-63.36 170.88-108 17.696-28.896 99.136-158.432 103.392-165.504 6.176-10.464 16.352-16.448 28.48-16.832 0.352 0 0.672 0 1.024 0 11.776 0 23.904 5.856 35.776 17.376 33.568 39.328 28.928 55.552 29.088 62.432 0.544 21.408-0.384 112.256 0.416 148.224l130.848 125.984c33.44-91.936 106.528-289.856 111.424-302.432 8.128-20.704 23.488-25.216 31.904-26.080 1.376-0.16 2.784-0.224 4.16-0.224 12.64 0 25.792 5.952 36.512 16.704 0 0 46.336 49.248 66.048 73.184 19.712 23.968 18.944 44.384 18.56 54.048-0.16 6.656-18.72 309.696-25.6 428.064l211.072 211.264c74.784 74.912 62.88 165.216 35.104 192.928-12.32 12.352-37.152 21.728-67.488 21.728v0z" />
<glyph unicode="&#xe933;" glyph-name="aim7" d="M1007.418 431.418h-54.536c-8.555-230.136-194.164-415.744-424.299-424.299v-54.536c0-9.15-7.416-16.582-16.582-16.582s-16.582 7.432-16.582 16.582v54.536c-230.136 8.555-415.744 194.164-424.299 424.299h-54.536c-9.15 0-16.582 7.416-16.582 16.582s7.432 16.599 16.582 16.599h54.536c8.555 230.119 194.164 415.727 424.299 424.283v54.536c0 9.15 7.416 16.582 16.582 16.582s16.582-7.432 16.582-16.582v-54.536c230.136-8.555 415.744-194.164 424.299-424.283h54.536c9.15 0 16.582-7.432 16.582-16.599s-7.432-16.582-16.582-16.582zM495.418 40.316v73.034c-171.586 8.407-309.661 146.482-318.068 318.068h-73.034c8.506-211.836 179.266-382.58 391.102-391.102zM495.418 855.684c-211.836-8.506-382.596-179.266-391.102-391.085h73.034c8.407 171.57 146.482 309.644 318.068 318.051v73.034zM512 679.127c-9.166 0-16.582 7.416-16.582 16.582v53.727c-153.286-8.341-276.513-131.567-284.854-284.837h53.727c9.166 0 16.582-7.432 16.582-16.599s-7.416-16.582-16.582-16.582h-53.727c8.341-153.286 131.567-276.497 284.854-284.837v53.71c0 9.166 7.416 16.599 16.582 16.599s16.582-7.432 16.582-16.599v-53.71c153.286 8.341 276.497 131.551 284.854 284.837h-53.727c-9.166 0-16.599 7.416-16.599 16.582s7.432 16.599 16.599 16.599h53.727c-8.357 153.27-131.567 276.497-284.854 284.837v-53.727c0-9.166-7.416-16.582-16.582-16.582zM528.582 855.684v-73.034c171.586-8.407 309.661-146.482 318.068-318.051h73.034c-8.506 211.819-179.266 382.58-391.102 391.085zM846.65 431.418c-8.407-171.586-146.482-309.661-318.068-318.068v-73.034c211.836 8.522 382.596 179.266 391.102 391.102h-73.034zM581.665 448c0-38.417-31.249-69.665-69.665-69.665s-69.665 31.249-69.665 69.665c0 38.417 31.249 69.665 69.665 69.665s69.665-31.249 69.665-69.665zM512 484.501c-20.117 0-36.501-16.367-36.501-36.501 0-20.117 16.384-36.484 36.501-36.484s36.484 16.367 36.484 36.484c0 20.133-16.367 36.501-36.484 36.501z" />
<glyph unicode="&#xe934;" glyph-name="cup7" horiz-adv-x="826" d="M790.924 800.768h-109.122v58.021c20.893 6.937 35.989 26.376 35.989 49.235 0 28.655-23.717 51.976-52.868 51.976h-504.039c-29.151 0-52.885-23.321-52.885-51.976 0-22.858 15.112-42.298 36.005-49.235v-58.021h-109.122c-19.241 0-34.882-15.377-34.882-34.287v-70.772c0-106.711 88.328-193.519 196.889-193.519 0.231 0 0.446 0.033 0.661 0.033 38.334-50.308 94.456-86.776 159.1-100.352-9.166-11.743-14.633-26.426-14.633-42.331 0-23.172 11.578-43.718 29.333-56.386-7.085-8.836-11.33-19.985-11.33-32.074v-141.56c0-29.878-24.725-54.189-55.131-54.189h-71.994c-19.241 0-34.882-15.377-34.882-34.271v-70.772c0-18.911 15.641-34.287 34.882-34.287h360.019c19.241 0 34.882 15.377 34.882 34.287v70.772c0 18.894-15.641 34.271-34.882 34.271h-72.010c-30.39 0-55.114 24.312-55.114 54.189v141.56c0 12.090-4.245 23.238-11.33 32.074 17.755 12.668 29.333 33.214 29.333 56.386 0 15.905-5.483 30.588-14.65 42.331 64.661 13.576 120.782 50.044 159.116 100.352 0.215 0 0.429-0.033 0.661-0.033 108.561 0 196.889 86.809 196.889 193.519v70.772c0 18.911-15.641 34.287-34.882 34.287zM160.884 926.836h504.039c10.537 0 19.126-8.44 19.126-18.812 0-10.356-8.588-18.795-19.126-18.795h-504.039c-10.537 0-19.126 8.44-19.126 18.795 0 10.372 8.588 18.812 19.126 18.812zM33.742 695.709v70.772c0 0.611 0.512 1.107 1.14 1.107h109.122v-107.256c0-44.594 11.314-86.627 31.232-123.508-79.756 10.438-141.494 77.692-141.494 158.885zM592.913 42.166c0.628 0 1.123-0.495 1.123-1.107v-70.772c0-0.611-0.495-1.107-1.123-1.107h-360.019c-0.628 0-1.123 0.495-1.123 1.107v70.772c0 0.611 0.495 1.107 1.123 1.107h360.019zM432.029 271.079v-141.56c0-20.447 7.218-39.275 19.241-54.189h-76.734c12.024 14.914 19.241 33.742 19.241 54.189v141.56c0 10.356 8.588 18.795 19.126 18.795 10.554 0 19.126-8.44 19.126-18.795zM450.031 359.54c0-20.117-16.648-36.501-37.128-36.501s-37.128 16.384-37.128 36.501c0 20.117 16.648 36.484 37.128 36.484s37.128-16.367 37.128-36.484zM412.903 429.205c-129.652 0-235.14 103.688-235.14 231.127v195.733h470.28v-195.733c0-127.438-105.489-231.127-235.14-231.127zM792.047 695.709c0-81.193-61.721-148.447-141.477-158.885 19.918 36.881 31.232 78.914 31.232 123.508v107.256h109.122c0.628 0 1.123-0.495 1.123-1.107v-70.772z" />
<glyph unicode="&#xe935;" glyph-name="user7" horiz-adv-x="958" d="M851.027 222.158l-162.634 40.365c-0.611 0.908-1.272 1.784-2.065 2.577l-48.442 48.227v46.163c4.030 4.079 7.977 8.308 11.809 12.734 45.205 51.927 72.374 121.906 76.536 197.021 0.165 3.022 0.314 6.028 0.462 9.034 0.512 9.943 0.991 19.324 1.932 28.788v0l16.037 159.612c4.955 49.334-11.363 98.717-44.808 135.482-33.429 36.765-81.177 57.839-131.006 57.839h-179.762c-49.829 0-97.577-21.075-131.022-57.839-33.429-36.765-49.763-86.148-44.808-135.482l16.037-159.496c0.958-9.513 1.437-18.977 1.949-29.002 0.149-2.973 0.297-5.946 0.462-8.935 4.146-75.115 31.331-145.094 76.519-197.021 3.848-4.426 7.796-8.654 11.826-12.734v-46.163l-48.442-48.227c-0.776-0.776-1.437-1.619-2.031-2.51l-162.667-40.448c-68.938-17.144-106.909-59.243-106.909-118.553v-115.613c0-28.655 23.436-51.976 52.224-51.976h853.487c28.788 0 52.224 23.321 52.224 51.976v115.629c0 59.293-37.971 101.393-106.909 118.553zM461.18 42.166h35.576c1.239 0 2.461 0.066 3.683 0.149l12.503-73.133h-67.947l12.503 73.133c1.222-0.083 2.444-0.149 3.683-0.149zM515.634 94.142c0-10.372-8.473-18.812-18.878-18.812h-35.576c-10.405 0-18.894 8.44-18.894 18.812v26.508l36.682 24.328 36.666-24.328v-26.508zM353.396 331.049c37.706-26.822 80.83-41.175 125.572-41.175s87.866 14.353 125.572 41.175v-17.722l-125.572-124.961-125.572 124.961v17.722zM541.646 143.261c-0.017 0.017-0.033 0.017-0.050 0.033l-36.468 24.196 116.075 115.514 32.685-32.537c-11.033-19.786-36.93-66.164-73.48-131.584-0.083-0.132-0.215-0.38-0.628-0.479-0.479-0.116-0.809 0.099-0.925 0.182l-37.211 24.675zM282.789 879.897c27.119 29.828 65.866 46.939 106.298 46.939h179.762c40.431 0 79.162-17.111 106.298-46.939 27.119-29.828 40.365-69.88 36.352-109.915l-10.157-100.996c-22.511 53.413-47.434 87.618-48.904 89.617-5.318 7.218-15.426 8.935-22.842 3.881-43.801-29.746-238.906-33.544-310.404-32.487-4.823 0.083-9.447-1.949-12.668-5.516-20.43-22.693-36.501-48.211-48.425-70.573l-11.66 116.075c-4.030 40.035 9.233 80.087 36.352 109.915zM265.001 571.062c-0.165 2.94-0.314 5.88-0.462 8.803-0.099 2.031-0.215 4.079-0.314 6.127 3.584 10.157 24.427 66.081 62.233 110.741 46.13-0.396 234.529-0.099 306.985 30.472 14.286-22.429 44.395-74.917 60.284-140.833-0.116-2.147-0.215-4.294-0.33-6.425-0.149-2.956-0.297-5.913-0.462-8.886-7.68-139.066-101.673-248.023-213.966-248.023-112.31 0-206.286 108.957-213.966 248.023zM336.714 283.004l116.092-115.514-36.468-24.196c-0.017-0.017-0.033-0.017-0.050-0.033l-37.211-24.675c-0.116-0.083-0.446-0.297-0.925-0.182-0.413 0.083-0.562 0.347-0.628 0.462-36.55 65.437-62.447 111.814-73.48 131.601l32.669 32.537zM33.346-12.024v115.613c0 43.834 27.466 72.902 81.639 86.379l162.188 40.316c9.612-17.259 29.547-52.951 71.218-127.538 4.658-8.308 12.635-14.353 21.917-16.599 2.659-0.628 5.368-0.941 8.060-0.941 6.772 0 13.477 1.965 19.192 5.764l11.396 7.564v-4.393c0-15.178 6.573-28.854 17.028-38.367l-14.815-86.594h-217.798v89.567c0 9.166-7.465 16.582-16.681 16.582-9.199 0-16.665-7.416-16.665-16.582v-89.567h-107.801c-10.405 0-18.878 8.44-18.878 18.795zM924.589-12.024c0-10.356-8.473-18.795-18.878-18.795h-107.801v89.567c0 9.166-7.465 16.582-16.681 16.582-9.199 0-16.665-7.416-16.665-16.582v-89.567h-217.798l-14.815 86.594c10.455 9.513 17.028 23.189 17.028 38.367v4.393l11.38-7.564c5.731-3.799 12.437-5.781 19.208-5.781 2.692 0 5.401 0.33 8.060 0.958 9.282 2.246 17.259 8.291 21.917 16.599 41.637 74.504 61.556 110.196 71.185 127.488l162.221-40.266c54.173-13.477 81.639-42.546 81.639-86.363v-115.629z" />
<glyph unicode="&#xe936;" glyph-name="docs7" horiz-adv-x="760" d="M706.444-64h-290.287c-14.055 0-26.756 5.434-36.286 14.138-9.53-8.704-22.231-14.138-36.286-14.138h-290.287c-29.399 0-53.298 23.321-53.298 51.976v920.047c0 28.655 23.899 51.976 53.298 51.976h290.287c14.055 0 26.756-5.434 36.286-14.121 9.53 8.687 22.231 14.121 36.286 14.121h290.287c29.399 0 53.298-23.321 53.298-51.976v-920.047c0-28.655-23.899-51.976-53.298-51.976zM362.859 908.040c0 10.356-8.654 18.795-19.274 18.795h-290.287c-10.636 0-19.291-8.44-19.291-18.812v-920.047c0-10.356 8.654-18.795 19.291-18.795h290.287c10.62 0 19.274 8.423 19.274 18.779 0 0.017 0 0.017 0 0.017v920.047c0 0.017 0 0.017 0 0.017zM725.719 908.024c0 10.372-8.638 18.812-19.274 18.812h-290.287c-10.62 0-19.274-8.423-19.274-18.779 0-0.017 0-0.017 0-0.033v-920.047c0 0 0-0.017 0-0.017 0-10.356 8.654-18.779 19.274-18.779h290.287c10.636 0 19.274 8.44 19.274 18.795v920.047zM652.024 325.252h-181.446c-19.373 0-35.146 15.377-35.146 34.287v442.335c0 18.894 15.773 34.271 35.146 34.271h181.446c19.373 0 35.146-15.377 35.146-34.271v-442.335c0-18.911-15.773-34.287-35.146-34.287zM653.147 801.875c0 0.611-0.495 1.107-1.123 1.107h-181.446c-0.628 0-1.123-0.495-1.123-1.107v-442.335c0-0.611 0.495-1.107 1.123-1.107h181.446c0.628 0 1.123 0.495 1.123 1.107v442.335zM597.587 431.418h-72.572c-9.398 0-17.012 7.432-17.012 16.582 0 9.166 7.614 16.599 17.012 16.599h72.572c9.398 0 17.012-7.432 17.012-16.599 0-9.15-7.614-16.582-17.012-16.582zM597.587 519.878h-72.572c-9.398 0-17.012 7.432-17.012 16.599 0 9.15 7.614 16.582 17.012 16.582h72.572c9.398 0 17.012-7.432 17.012-16.582 0-9.166-7.614-16.599-17.012-16.599zM597.587 608.355h-72.572c-9.398 0-17.012 7.416-17.012 16.582s7.614 16.582 17.012 16.582h72.572c9.398 0 17.012-7.416 17.012-16.582s-7.614-16.582-17.012-16.582zM597.587 696.815h-72.572c-9.398 0-17.012 7.432-17.012 16.599 0 9.15 7.614 16.582 17.012 16.582h72.572c9.398 0 17.012-7.432 17.012-16.582 0-9.166-7.614-16.599-17.012-16.599zM561.301 234.579c49.4 0 89.583-39.193 89.583-87.354 0-48.178-40.184-87.37-89.583-87.37s-89.583 39.193-89.583 87.37c0 48.161 40.184 87.354 89.583 87.354zM561.301 93.035c30.637 0 55.56 24.312 55.56 54.189s-24.923 54.173-55.56 54.173c-30.637 0-55.56-24.295-55.56-54.173s24.923-54.189 55.56-54.189zM289.148 325.252h-181.43c-19.373 0-35.146 15.377-35.146 34.287v442.335c0 18.894 15.773 34.271 35.146 34.271h181.43c19.39 0 35.163-15.377 35.163-34.271v-442.335c0-18.911-15.773-34.287-35.163-34.287zM290.287 801.875c0 0.611-0.512 1.107-1.14 1.107h-181.43c-0.628 0-1.123-0.495-1.123-1.107v-442.335c0-0.611 0.495-1.107 1.123-1.107h181.43c0.628 0 1.14 0.495 1.14 1.107v442.335zM234.727 431.418h-72.572c-9.398 0-17.012 7.432-17.012 16.582 0 9.166 7.614 16.599 17.012 16.599h72.572c9.398 0 17.012-7.432 17.012-16.599 0-9.15-7.614-16.582-17.012-16.582zM234.727 519.878h-72.572c-9.398 0-17.012 7.432-17.012 16.599 0 9.15 7.614 16.582 17.012 16.582h72.572c9.398 0 17.012-7.432 17.012-16.582 0-9.166-7.614-16.599-17.012-16.599zM234.727 608.355h-72.572c-9.398 0-17.012 7.416-17.012 16.582s7.614 16.582 17.012 16.582h72.572c9.398 0 17.012-7.416 17.012-16.582s-7.614-16.582-17.012-16.582zM234.727 696.815h-72.572c-9.398 0-17.012 7.432-17.012 16.599 0 9.15 7.614 16.582 17.012 16.582h72.572c9.398 0 17.012-7.432 17.012-16.582 0-9.166-7.614-16.599-17.012-16.599zM198.441 234.579c49.4 0 89.583-39.193 89.583-87.354 0-48.178-40.184-87.37-89.583-87.37s-89.583 39.193-89.583 87.37c0 48.161 40.184 87.354 89.583 87.354zM198.441 93.035c30.637 0 55.56 24.312 55.56 54.189s-24.923 54.173-55.56 54.173c-30.637 0-55.56-24.295-55.56-54.173s24.923-54.189 55.56-54.189z" />
<glyph unicode="&#xe937;" glyph-name="bar-graph7" d="M992 864.096h-32v-640c0-35.36-28.672-64.032-64-64.032h-276.384l79.616-146.624c9.824-14.528 4-33.152-13.024-41.568-16.992-8.352-38.752-3.392-48.576 11.136l-88.864 163.712c-2.88 4.224-4.032 8.768-4.352 13.344h-64.832c-0.32-4.576-1.504-9.12-4.352-13.344l-88.896-163.712c-9.824-14.528-31.552-19.488-48.576-11.136-16.992 8.416-22.816 27.040-12.992 41.568l79.616 146.624h-276.384c-35.36 0-64 28.672-64 64.032v640h-32c-17.664 0-32 14.304-32 32 0 17.664 14.336 31.968 32 31.968h960c17.664 0 32-14.304 32-31.968 0-17.696-14.336-32-32-32zM896 864.032h-31.68c-0.128 0-0.224 0.064-0.32 0.064h-704c-0.128 0-0.224-0.064-0.32-0.064h-31.68v-607.936c0-17.696 14.336-32 32-32h704c17.664 0 32 14.304 32 32v607.936zM320 512.096c17.664 0 32-14.336 32-32.032v-127.968c0-17.696-14.336-32.032-32-32.032s-32 14.336-32 32.032v127.968c0 17.696 14.336 32.032 32 32.032zM512 768.096c17.664 0 32-14.336 32-32.032v-383.968c0-17.696-14.336-32.032-32-32.032s-32 14.336-32 32.032v383.968c0 17.696 14.336 32.032 32 32.032zM704 672.064c17.664 0 32-14.336 32-31.968v-288c0-17.696-14.336-32.032-32-32.032s-32 14.336-32 32.032v288c0 17.632 14.336 31.968 32 31.968z" />
<glyph unicode="&#xe938;" glyph-name="plant7" d="M485.406 86.859v-93.545c0-15.149 11.987-27.407 26.744-27.407 14.788 0 26.775 12.258 26.775 27.407v114.808c0 0.030 0 0.030 0 0.060v128.151c258.078 36.683 460.348 251.392 485.195 519.439 0.753 8.162-2.078 16.233-7.71 21.986-5.632 5.813-13.523 8.704-21.474 7.921-201.427-19.637-371.983-147.305-456.011-325.933v354.906c0 33.28 26.413 60.356 58.88 60.356 14.788 0 26.775 12.288 26.775 27.437 0 15.179-11.987 27.437-26.775 27.437-61.982 0-112.399-51.682-112.399-115.23v-133.361c-55.657 88.245-148.691 149.353-256.181 159.804-7.951 0.783-15.842-2.108-21.474-7.891-5.632-5.813-8.463-13.854-7.71-22.016 14.788-159.563 133.090-287.985 285.365-314.097v-186.82c-84.028 178.628-254.584 306.296-456.041 325.933-7.921 0.783-15.812-2.108-21.444-7.921-5.632-5.783-8.463-13.824-7.71-21.986 24.847-268.047 227.117-482.756 485.195-519.439zM258.741 780.951c110.381-24.757 197.24-113.815 221.365-226.997-110.381 24.757-197.24 113.784-221.365 226.997zM966.536 726.648c-32.256-204.378-179.26-369.032-371.14-422.49l221.184 226.786c10.451 10.722 10.451 28.1 0 38.822-10.451 10.692-27.407 10.692-37.858 0l-226.424-232.177c49.724 200.885 212.058 355.509 414.238 389.060zM472.034 188.115l-226.424 232.177c-10.451 10.722-27.407 10.722-37.858 0s-10.451-28.1 0-38.822l221.184-226.786c-191.88 53.489-338.884 218.112-371.14 422.49 202.18-33.551 364.514-188.175 414.238-389.060z" />
<glyph unicode="&#xe939;" glyph-name="quote8" horiz-adv-x="1229" d="M512.154 959.795h-512v-475.187h304.384l-3.789-55.603c-5.376-79.002-32-135.475-79.002-193.741-38.605-47.974-100.506-94.259-188.467-140.544l82.483-158.822c139.93 67.533 240.794 144.128 300.134 227.994 63.846 90.522 96.256 204.698 96.256 365.414v430.49zM1229.056 959.795h-513.587v-475.187h305.971l-3.84-55.654c-5.427-78.95-32.051-135.373-79.053-193.638-38.758-48.077-100.659-94.31-188.518-140.595l82.381-158.822c140.237 67.686 241.101 144.282 300.083 227.942 64 90.573 96.41 217.958 96.41 378.624l0.154 417.331z" />
<glyph unicode="&#xe93a;" glyph-name="shopping-cart8" horiz-adv-x="1088" d="M1082.304 677.504l0.064-0.064-127.232-447.936c-9.472-21.248-29.824-36.416-53.888-38.016v-0.064l-471.68 0.704-219.776 638.336h-146.048c-35.2 0-63.744 28.992-63.744 64.768s28.544 64.768 63.744 64.768h191.232c27.84 0 51.264-18.176 59.968-43.456l0.192 0.064 51.136-147.776h657.984c35.2 0 63.744-28.992 63.744-64.768 0-9.472-2.112-18.432-5.696-26.56zM410.88 639.296l101.12-319.232 342.592 0.128 81.024 319.104h-524.736zM480 128c52.992 0 96-42.944 96-96 0-52.992-43.008-96-96-96s-96 43.008-96 96c0 53.056 43.008 96 96 96zM864 128c52.992 0 96-42.944 96-96 0-52.992-43.008-96-96-96s-96 43.008-96 96c0 53.056 43.008 96 96 96z" />
<glyph unicode="&#xe93b;" glyph-name="quote2" d="M920.448 171.575h-426.218l-277.947-226.384c-20.289-15.893-41.418-7.74-47.892-4.183-15.267 8.565-23.846 25.497-21.541 42.841l25.298 187.726h-67.968c-57.51 0-104.363 46.825-104.363 104.107v579.897c0 57.482 46.853 104.307 104.363 104.307h816.269c57.524 0 104.15-46.825 104.15-104.307v-579.897c0-57.482-46.839-104.107-104.15-104.107zM939.271 855.58c0 10.443-8.366 18.81-18.824 18.81l-816.269 0.213c-10.458 0-18.824-8.366-18.824-18.824v-579.882c0-10.458 8.366-18.81 18.824-18.81h117.126c34.503-1.266 45.8-33.038 42.243-48.29l-17.358-128.992 205.995 167.864c7.527 6.275 17.159 9.618 26.977 9.618h441.286c10.458 0 18.824 8.366 18.824 18.824v579.47zM590.468 703.893h170.738v-170.738l-170.738-170.738v341.476zM305.905 703.893h170.738v-170.738l-170.738-170.738v341.476z" />
<glyph unicode="&#xe93c;" glyph-name="pin-11" horiz-adv-x="819" d="M811.93 472.474c-0.205-1.485-1.075-5.99-2.816-13.722-6.195-27.904-15.411-54.938-27.392-80.947-44.083-104.090-141.312-264.038-353.946-435.354-5.325-4.301-11.776-6.451-18.176-6.451-6.451 0-12.851 2.15-18.227 6.451-212.787 171.315-309.811 331.264-353.894 435.354-11.981 26.010-21.197 53.248-27.443 80.947-1.69 7.731-2.56 12.237-2.765 13.722-4.915 25.344-7.27 51.354-7.27 77.107 0 226.253 183.706 410.419 409.395 410.419 225.638 0 409.344-184.166 409.805-410.419 0-25.754-2.56-51.763-7.27-77.107zM412.621 875.059c-178.842 0-324.454-147.251-324.454-328.038 0-20.992 1.997-41.779 5.939-62.362 0-0.563 0.205-1.024 0.205-1.382 0.205-1.024 0.614-3.994 1.792-8.602 0-0.205 0-0.205 0-0.41 5.12-22.374 12.442-44.339 21.914-65.126 0.205-0.205 0.205-0.614 0.41-0.819 36.915-88.525 117.914-223.59 294.195-370.842 176.23 147.251 257.229 282.317 294.144 370.842 0.205 0.205 0.205 0.614 0.41 0.819 9.677 20.992 16.998 42.752 21.914 65.126 0 0.205 0 0.205 0 0.41 0.973 4.608 1.587 7.578 1.792 8.602 0 0.358 0.205 0.819 0.205 1.178 3.942 20.378 5.939 41.37 5.939 62.566 0 180.787-145.613 328.038-324.403 328.038zM410.061 345.293c-112.845 0-204.749 91.904-204.749 204.698 0 112.742 91.904 204.646 204.749 204.646s204.749-91.904 204.749-204.646c0-112.794-91.904-204.698-204.749-204.698zM410.010 670.771c-66.56 0-120.832-54.221-120.832-120.73s54.118-120.781 120.832-120.781c66.662 0 120.781 54.272 120.781 120.781s-54.272 120.73-120.781 120.73z" />
<glyph unicode="&#xe93d;" glyph-name="envelope-11" horiz-adv-x="1280" d="M1123.456-64h-966.912c-86.336 0-156.544 73.792-156.544 164.544v694.912c0 90.752 70.208 164.544 156.544 164.544h967.168c86.336 0 156.544-74.048 156.288-164.8v-694.656c0-90.752-70.208-164.544-156.544-164.544zM1176.448 132.544v630.656c0 49.28-38.080 89.344-84.992 89.344h-902.912c-46.912 0-85.056-40.064-85.056-89.344v-630.656c0-49.28 38.144-89.344 85.056-89.344h903.168c46.912 0 85.056 40.064 85.056 89.344h-0.32zM1044.672 208.448c-9.472-10.304-21.824-15.488-34.432-15.488-11.648 0-23.552 4.416-32.704 13.632l-186.496 185.984-118.528-111.68c-8.768-8.448-20.352-12.928-31.616-12.928s-22.528 4.096-31.68 12.544l-115.328 108.352-188.928-181.888c-9.152-8.832-20.736-13.312-32.32-13.312-12.672 0-25.344 5.568-34.816 15.936-17.984 20.288-16.896 51.712 2.112 70.592l182.592 175.936-184.384 158.976c-19.712 18.496-21.44 49.92-3.84 70.592 17.536 20.736 47.424 22.592 67.136 4.096l218.816-191.872c2.816-2.24 5.312-4.416 7.744-7.040 0-0.384 0.384-0.704 0.704-1.088l111.808-104.96 337.024 304.576c19.648 18.496 49.536 16.64 67.136-3.712 17.6-20.672 15.808-52.096-3.52-70.592l-179.392-155.648 181.184-180.416c18.944-18.816 19.648-50.624 1.728-70.592z" />
<glyph unicode="&#xe93e;" glyph-name="phone-11" horiz-adv-x="1027" d="M1012.77 146.748l-56.302-98.349c-40.355-70.506-115.937-112.399-193.57-112.399-20.511 0-41.022 2.974-61.122 9.23-159.317 48.149-302.021 138.345-424.727 268.127-129.936 122.603-220.183 265.358-268.076 424.624-29.125 96.503 14.409 203.672 103.374 254.744l98.4 56.302c67.993 35.535 119.065-13.64 131.218-34.561l82.863-133.525c25.741-45.021 11.742-101.682-31.792-129.525l-28.869-18.46c-4.41-2.923-6.512-8.358-4.615-12.973 31.997-79.12 137.525-190.237 137.525-190.237 1.026-0.872 109.015-103.374 187.109-134.551 4.41-1.897 9.845 0.154 12.768 4.564l18.408 29.125c27.843 43.739 84.761 57.533 130.807 31.176l130.807-81.428c46.252-26.613 62.199-85.632 35.791-131.884zM933.24 205.153l-130.807 81.428c-6.051 3.794-12.768-0.205-15.075-3.538l-18.408-29.125c-25.126-39.124-74.095-55.225-116.809-38.099-93.529 37.483-209.517 147.575-215.773 153.677-4.82 4.974-118.039 124.090-156.343 218.491-17.383 42.662-1.487 92.042 37.894 117.168l28.869 18.408c5.025 3.179 6.461 9.845 4.41 13.64l-82.915 133.32c-3.333 8.153-11.691 6.051-15.075 4.153l-98.349-56.251c-54.866-31.433-88.145-99.221-64.045-155.933 137.679-324.634 302.636-487.49 635.629-635.629 56.302-25.126 124.552 9.179 155.933 64.045l56.302 98.349c2.923 5.23 1.282 12.153-5.435 15.896zM632.244 744.073c96.913 0 175.829-78.864 175.829-175.777 0-23.639-19.024-42.714-42.662-42.714-23.69 0-42.714 19.075-42.714 42.714 0 49.79-40.611 90.401-90.452 90.401-23.639 0-42.662 19.075-42.662 42.714s19.024 42.662 42.662 42.662zM949.392 525.582c-23.69 0-42.714 19.075-42.714 42.919 0 151.318-123.065 274.383-274.434 274.383-23.639 0-42.662 19.075-42.662 42.714s19.024 42.662 42.662 42.662c198.442 0 359.81-161.574 359.81-359.964 0-23.639-19.024-42.714-42.662-42.714z" />
<glyph unicode="&#xe93f;" glyph-name="cart_13" d="M984.441 556.113c-13.258-78.255-80.303-135.006-159.528-135.006h-486.4l16.761-67.099c6.036-24.037 27.486-40.744 52.278-40.744h454.764c29.75 0 53.895-24.091 53.895-53.895 0-29.696-24.145-53.841-53.895-53.841h-454.764c-74.267 0-138.833 50.338-156.941 122.395l-131.072 524.288h-65.644c-29.75 0-53.895 24.145-53.895 53.895s24.145 53.895 53.895 53.895h107.789c24.684 0 46.349-16.815 52.278-40.852l16.761-66.937h739.382c15.737 0 30.828-6.899 41.176-19.079 10.24-12.072 14.659-28.025 11.965-43.655l-38.804-233.364zM257.671 744.421l53.895-215.579h513.347c26.408 0 48.721 18.971 53.14 45.056l28.456 170.523h-648.839zM377.263 151.633c59.554 0 107.789-48.29 107.789-107.789 0-59.554-48.236-107.789-107.789-107.789s-107.789 48.236-107.789 107.789c0 59.5 48.236 107.789 107.789 107.789zM808.421 151.633c59.554 0 107.789-48.29 107.789-107.789 0-59.554-48.236-107.789-107.789-107.789-59.5 0-107.789 48.236-107.789 107.789 0 59.5 48.29 107.789 107.789 107.789z" />
<glyph unicode="&#xe940;" glyph-name="chip_13" d="M1024 182.537v-37.926h-132.741v-75.852h-75.852v-132.741h-37.926v132.741h-75.852v-132.741h-37.926v132.741h-75.852v-132.741h-37.926v132.741h-75.852v-132.741h-37.926v132.741h-75.852v-132.741h-37.926v132.741h-75.852v-132.741h-37.926v132.741h-75.852v75.852h-132.741v37.926h132.741v75.852h-132.741v37.926h132.741v75.852h-132.741v37.926h132.741v75.852h-132.741v37.926h132.741v75.852h-132.741v37.926h132.741v75.852h-132.741v37.926h132.741v75.852h75.852v132.741h37.926v-132.741h75.852v132.741h37.926v-132.741h75.852v132.741h37.926v-132.741h75.852v132.741h37.926v-132.741h75.852v132.741h37.926v-132.741h75.852v132.741h37.926v-132.741h75.852v-75.852h132.741v-37.926h-132.741v-75.852h132.741v-37.926h-132.741v-75.852h132.741v-37.926h-132.741v-75.852h132.741v-37.926h-132.741v-75.852h132.741v-37.926h-132.741v-75.852h132.741zM853.333 789.333h-682.667v-682.648h682.667v682.648zM815.407 144.612h-606.815v606.815h606.815v-606.815zM777.481 713.5h-530.963v-530.963h530.963v530.963z" />
<glyph unicode="&#xe941;" glyph-name="env_13" d="M1024 736.064v-608c0-35.328-28.672-64-64-64h-896c-35.392 0-64 28.672-64 64v608l512-416 512 416zM960 832.064h-896l448-384 448 384z" />
<glyph unicode="&#xe942;" glyph-name="horse_13" horiz-adv-x="758" d="M747.729 552.713l-30.891-44.487c-12.857-18.527-36.39-29.658-59.164-29.658-6.903 0-13.615 0.986-20.025 2.977l-240.697 78.829c6.334-67.717 38.798-91.401 79.095-120.111 51.731-36.826 110.364-116.603 110.364-257.271 0-10.487-8.476-19.001-18.944-19.001-10.505 0-18.963 8.514-18.963 19.039 0 121.003-45.852 191.678-94.398 226.285-45.416 32.294-91.838 66.408-95.649 163.669l-34.171 11.188c-9.937 3.281-15.398 13.995-12.136 23.969 3.224 9.993 13.843 15.436 23.893 12.193l313.439-102.722c11.719-3.868 29.070 1.915 36.2 12.212l30.891 44.449c6.106 8.951 4.21 22.111-4.361 28.653l-271.72 211.285c-4.21 3.262-6.865 8.211-7.282 13.577l-5.803 76.629-79.815-61.687c-6.353-4.968-14.829-5.082-21.352-1.1l-58.273 33.47-40.258-63.241c-3.186-4.987-8.439-8.23-14.279-8.723l-42.951-3.793 18.034-41.074c3.887-8.969 0.455-19.437-8.021-24.235l-42.648-24.102 29.753-39.405c3.034-4.020 4.475-9.159 3.717-14.108-0.645-5.063-3.337-9.538-7.32-12.591l-40.126-30.379 33.697-37.641c3.413-3.812 5.177-8.856 4.798-13.995-0.341-5.177-2.712-9.937-6.656-13.236l-38.59-32.768 35.366-36.447c3.679-3.622 5.537-8.704 5.385-13.843s-2.389-10.031-6.22-13.464l-37.907-34.266 36.352-35.973c3.641-3.622 5.689-8.59 5.613-13.767s-2.2-10.107-5.992-13.615l-37.376-34.911 36.845-35.65c3.717-3.546 5.803-8.533 5.803-13.786-0.076-5.101-2.124-9.993-5.879-13.615l-36.921-35.309 26.15-24.633c7.585-7.206 7.851-19.191 0.683-26.833-3.793-4.191-8.799-6.125-13.729-6.125-4.703 0-9.387 1.707-13.065 5.253l-40.884 38.647c-0.076 0.076-0.114 0.19-0.19 0.265-0.114 0.133-0.265 0.171-0.398 0.284-0.777 0.853-1.138 1.896-1.745 2.825-0.74 1.119-1.593 2.124-2.086 3.356-0.303 0.759-0.303 1.555-0.493 2.351-0.398 1.498-0.948 2.958-0.967 4.532 0 5.253 2.086 10.221 5.803 13.767l0.133-0.038c0.019 0.019 0.019 0.038 0.038 0.057l37.224 35.669-36.978 35.821c-3.717 3.546-5.841 8.552-5.803 13.843 0.076 5.101 2.2 10.088 6.030 13.71l37.509 35.063-36.542 36.143c-3.66 3.736-5.746 8.723-5.632 14.014 0.114 5.196 2.389 10.145 6.239 13.634l38.135 34.551-35.745 36.807c-3.736 3.793-5.632 8.932-5.404 14.222 0.284 5.253 2.712 10.183 6.656 13.577l39.196 33.261-34.456 38.457c-3.565 3.944-5.31 9.197-4.741 14.526 0.417 5.329 3.186 10.107 7.396 13.312l41.472 31.441-31.46 41.567c-3.262 4.38-4.513 10.012-3.451 15.36 1.1 5.367 4.513 9.975 9.254 12.667l46.573 26.359-21.675 49.588c-2.465 5.594-2.086 12.004 1.024 17.351 3.091 5.272 8.552 8.704 14.658 9.235l59.961 5.196 44.961 70.675c5.404 8.552 16.668 11.321 25.391 6.258l63.393-36.523 97.527 75.359c5.499 4.267 12.933 5.215 19.342 2.351 6.353-2.844 10.638-8.932 11.169-15.891l7.813-103.272 264.969-206.052c24.367-18.868 29.905-54.917 12.288-80.441zM94.758 88.14c-10.43 0-18.963 8.514-18.963 19.001 0 10.468 8.533 19.020 18.963 19.020h492.715c10.468 0 18.963-8.552 18.963-19.020 0-10.487-8.495-19.001-18.963-19.001h-492.715zM644.324 31.080c0-10.487-8.476-19.001-18.944-19.001h-568.529c-10.43 0-18.944 8.514-18.944 19.001 0 10.468 8.514 19.020 18.944 19.020h568.529c10.468 0 18.944-8.552 18.944-19.020zM682.231-44.98c0-10.487-8.495-19.001-18.944-19.001h-644.343c-10.411 0-18.944 8.514-18.944 19.001 0 10.468 8.533 19.020 18.944 19.020h644.343c10.449 0 18.944-8.552 18.944-19.020z" />
<glyph unicode="&#xe943;" glyph-name="human_13" horiz-adv-x="910" d="M899.755 321.65c-2.655-1.346-5.575-2.067-8.533-2.067h-54.405v-195.622c0-10.695-8.495-19.38-18.963-19.38h-151.097l-18.868-168.581h-38.153l21.239 190.161c1.081 9.785 9.178 17.18 18.811 17.199h149.106v195.622c0 10.695 8.476 19.399 18.963 19.399h42.534l-125.080 254.161c-0.91 1.801-1.536 3.755-1.858 5.765-29.184 195.66-206.526 328.78-398.526 299.008-191.488-29.696-321.479-209.673-293.224-404.745l166.722-372.167c1.365-3.034 1.915-6.372 1.631-9.69l-16.46-194.712h-38.078l16.308 193.043-166.21 371.105c-0.721 1.612-1.214 3.319-1.479 5.082-32.275 216.292 113 417.527 325.082 450.408 26.51 4.096 52.793 5.404 78.545 4.077 179.2-9.216 332.971-144.687 362.591-332.098l137.842-279.931c4.703-9.557 0.929-21.22-8.439-26.036zM432.887 836.798v-0.076c1.707 0 3.394-0.228 5.044-0.683 68.343-18.716 124.302-68.911 151.381-135.718s22.206-142.696-13.179-205.312c-4.892-9.481-16.365-13.122-25.619-8.135-9.292 4.987-12.838 16.706-7.964 26.188 0.228 0.455 0.493 0.891 0.759 1.327 29.487 52.205 33.545 115.371 10.961 171.084s-69.139 97.47-126.123 113.076c-10.183 2.484-16.479 12.952-14.052 23.362 2.086 8.856 9.899 15.038 18.792 14.886zM207.758 487.803c-9.064-5.367-20.67-2.219-25.922 7.035 0 0 0 0 0 0-40.657 71.964-40.657 160.787 0 232.751 40.638 71.964 115.883 116.338 197.177 116.338 10.487 0 18.963-8.685 18.963-19.399v-213.276c0.019-6.94-3.603-13.331-9.481-16.82l-180.736-106.629zM360.050 799.915c-59.885-6.523-114.802-37.698-145.313-91.705-30.53-54.025-29.468-118.253-5.044-174.497l150.357 88.671v177.531zM526.772 480.009c10.487 0 18.982-8.685 18.963-19.399 0-5.253-2.086-10.278-5.765-13.938-42.686-43.615-100.58-68.077-160.958-68.077-60.359 0-118.253 24.462-160.958 68.077-7.566 7.396-7.832 19.684-0.588 27.42 3.698 3.963 8.875 6.144 14.222 5.973 4.513-0.095 8.818-1.839 12.155-4.911 0.36-0.341 0.721-0.683 1.043-1.062 26.681-27.269 60.473-45.511 96.92-52.926 12.155-2.484 24.633-3.793 37.205-3.793 50.328 0 98.551 20.366 134.125 56.718 3.584 3.774 8.495 5.916 13.634 5.916z" />
<glyph unicode="&#xe944;" glyph-name="mail_13" d="M913.762-64h-803.525c-60.81 0-110.238 50.924-110.238 113.546v495.892c0 38.203 23.513 85.78 53.563 108.229l93.026 69.553v66.442c0 33.004 26.073 59.825 58.092 59.825h112.876l-0.748 0.985 111.183 83.141c47.104 35.21 120.95 35.21 168.054 0l111.183-83.141-0.709-0.985h112.798c32.020 0 58.092-26.821 58.092-59.825v-66.402l93.026-69.593c30.050-22.449 53.563-70.026 53.563-108.229v-495.892c0-62.622-49.467-113.546-110.238-113.546zM110.238-15.872h803.525c7.759 0 15.124 1.497 21.977 4.135l-371.161 311.572c-28.514 23.946-76.642 23.946-105.157 0l-371.161-311.572c6.853-2.639 14.218-4.135 21.977-4.135zM146.59 663.788l-65.575-49.034c-4.49-3.348-8.822-7.838-12.8-12.997l78.375-65.851v127.882zM47.892 556.702c-0.709-3.899-1.182-7.68-1.182-11.264v-495.892c0-10.279 2.363-19.968 6.498-28.672l316.455 265.689-321.772 270.139zM568.596 894.661c-30.681 22.961-82.511 22.961-113.191 0l-60.455-45.174h234.102l-60.455 45.174zM830.7 789.662c0 6.341-5.199 11.697-11.382 11.697h-614.636c-6.183 0-11.382-5.356-11.382-11.697v-292.982l213.346-179.082 23.276 19.535c45.253 37.967 118.902 37.967 164.155 0l23.276-19.535 213.346 179.121v292.943zM942.986 614.754l-65.575 49.034v-127.882l78.375 65.851c-3.978 5.159-8.31 9.689-12.8 12.997zM977.29 49.546v495.892c0 3.584-0.473 7.404-1.182 11.303l-321.812-270.178 316.495-265.689c4.135 8.704 6.498 18.393 6.498 28.672v0zM700.455 428.15h-376.95c-12.918 0-23.355 10.752-23.355 24.025s10.437 24.064 23.355 24.064h376.95c12.918 0 23.355-10.791 23.355-24.064s-10.437-24.025-23.355-24.025zM700.455 546.58h-376.95c-12.918 0-23.355 10.752-23.355 24.025 0 13.312 10.437 24.064 23.355 24.064h376.95c12.918 0 23.355-10.752 23.355-24.064 0-13.273-10.437-24.025-23.355-24.025zM700.455 665.049h-376.95c-12.918 0-23.355 10.752-23.355 24.025 0 13.312 10.437 24.064 23.355 24.064h376.95c12.918 0 23.355-10.752 23.355-24.064 0-13.273-10.437-24.025-23.355-24.025z" />
<glyph unicode="&#xe945;" glyph-name="phone_13_2" d="M1024.768 151.488c0-25.984-12.032-77.056-22.016-101.056-30.016-65.984-155.968-113.984-225.024-113.984-66.944 0-128 27.008-189.952 50.048-219.008 80-457.024 317.952-537.024 536.96-22.976 62.016-49.984 123.008-49.984 190.016 0 68.992 48 195.008 113.984 225.024 24 9.984 75.008 21.952 100.992 21.952 4.992 0 11.008 0 16-1.984 17.984-6.016 92.032-152 108.032-180.032 11.008-19.008 32.96-41.984 32.96-64.96 0-44.032-131.008-108.992-131.008-148.032 0-19.968 18.048-44.992 28.032-62.976 73.984-132.032 164.992-223.040 297.024-297.024 17.984-9.984 43.008-27.968 62.976-27.968 38.976 0 104 131.008 147.968 131.008 23.040 0 46.016-22.016 65.024-33.024 28.032-16 174.016-89.984 180.032-108.032 1.984-4.928 1.984-10.944 1.984-15.936z" />
</font>
</defs>
</svg>
